[ Сегодня идет свободное скачивание без начисления Download ]


Статистика раздачи
Нет
 
   
 
Top  
 
 
-Миссия Дарвина / G-Force (2009) BDRip-«Пушистые и беспощадные»- Русское название: Миссия Дарвина
Оригинальное название: G-Force
Год выпуска: 2009
Жанр: Мультфильм, Фэнтези, Боевик, Комедия, Приключения, Семейный
Описание фильма:
«Миссия Дарвина» — это суперкоманда морских свинок, работающих на правительство США. Для выполнения специальных заданий зверьков подготовил один ученый, и теперь они могут проникать в места, недоступные для людей, вооружившись самыми современными технологиями.
В спецподразделение входят: Дарвин — командир отряда, спец по коммуникациям; Хуарес — единственная девушка в команде, спец по боевым искусствам; Бластер — «мускулы» команды. Вместе им предстоит разрушить планы злого гения, мечтающего захватить власть над миром.
Режиссер: Хойт Йетмен
Актеры: Билл Найи, Уилл Арнетт, Зак Галифианакис, Келли Гарнер, Тайлер Патрик Джонс, Николас Кейдж, Сэм Рокуэлл, Джон Фавро, Пенелопа Крус, Стив Бушем
Продолжительность: 01:28:16
Перевод: Дублированный

Дата мировой премьеры: 19 июля 2009
Дата российской премьеры: 20 августа 2009, «BVSPR Disney»
Дата выхода DVD релиза: 17 декабря 2009, «Уолт Дисней Компани СНГ»
Дата выхода BLU-RAY релиза: 17 декабря 2009, «Уолт Дисней Компани СНГ»
Видеокодек: MPEG-4 AVC/H.264
Битрейт видео: ~17,1 Мбит/сек
Размер кадра: 1920x1080
Качество видео: BDRip
Аудио №1: AC3 5.1, 640 kbps - Русский
Аудио №2: AC3 5.1, 640 kbps - Украинский
Аудио №3: AC3 5.1, 640 kbps - Английский
Сэмпл: Ссылка

Media info:

Общее
Уникальный идентификатор : 176148254900409033009270730637254306210 (0x8484EB7D057B33EBB1D9EFE0757FA9A2)
Полное имя : H:\my films\G_FORCE_3D.mkv
Формат : Matroska
Версия формата : Version 4 / Version 2
Размер файла : 12,0 Гбайт
Продолжительность : 1 ч. 28 м.
Общий поток : 19,4 Мбит/сек
Название фильма : G_FORCE_3D_crop_over/under
Дата кодирования : UTC 2010-02-22 21:41:31
Программа кодирования : mkvmerge v5.9.0 ('On The Loose') built on Dec 9 2012 15:37:01
Библиотека кодирования : libebml v1.3.0 + libmatroska v1.4.0
Видео
Идентификатор : 1
Формат : AVC
Формат/Информация : Advanced Video Codec
Профиль формата : High@L4.1
Параметр CABAC формата : Да
Параметр ReFrames формата : 4 кадра
Режим смешивания : Header stripping
Идентификатор кодека : V_MPEG4/ISO/AVC
Битрейт : 17,1 Мбит/сек
Ширина : 1920 пикселей
Высота : 1080 пикселей
Соотношение сторон : 16:9
Режим частоты кадров : Переменный
Цветовое пространство : YUV
Субдискретизация насыщенности : 4:2:0
Битовая глубина : 8 бит
Тип развёртки : Прогрессивная
Заголовок : rip by I/N
Библиотека кодирования : x264 core 128 r2216M 198a7ea
Настройки программы : cabac=1 / ref=4 / deblock=1:-3:-3 / analyse=0x3:0x133 / me=umh / subme=7 / psy=1 / psy_rd=1.00:0.20 / mixed_ref=1 / me_range=32 / chroma_me=1 / trellis=2 / 8x8dct=1 / cqm=1 / deadzone=21,11 / fast_pskip=1 / chroma_qp_offset=-3 / threads=4 / lookahead_threads=1 / sliced_threads=0 / nr=0 / decimate=1 / interlaced=0 / bluray_compat=0 / constrained_intra=0 / bframes=4 / b_pyramid=2 / b_adapt=2 / b_bias=0 / direct=1 / weightb=1 / open_gop=0 / weightp=2 / keyint=12 / keyint_min=2 / scenecut=60 / intra_refresh=0 / rc_lookahead=17 / rc=crf / mbtree=1 / crf=16.0 / qcomp=0.60 / qpmin=10 / qpmax=60 / qpstep=6 / vbv_maxrate=40000 / vbv_bufsize=30000 / crf_max=30.0 / nal_hrd=none / ip_ratio=1.40 / aq=1:0.70
Язык : English
Default : Да
Forced : Нет
Аудио #1
Идентификатор : 2
Формат : AC-3
Формат/Информация : Audio Coding 3
Расширение режима : CM (complete main)
Параметр Endianness формата : Big
Режим смешивания : Header stripping
Идентификатор кодека : A_AC3
Продолжительность : 1 ч. 28 м.
Вид битрейта : Постоянный
Битрейт : 640 Кбит/сек
Каналы : 6 каналов
Расположение каналов : Front: L C R, Side: L R, LFE
Частота : 48,0 КГц
Битовая глубина : 16 бит
Метод сжатия : С потерями
Размер потока : 404 Мбайт (3%)
Язык : Russian
Default : Да
Forced : Нет
Аудио #2
Идентификатор : 3
Формат : AC-3
Формат/Информация : Audio Coding 3
Расширение режима : CM (complete main)
Параметр Endianness формата : Big
Режим смешивания : Header stripping
Идентификатор кодека : A_AC3
Продолжительность : 1 ч. 28 м.
Вид битрейта : Постоянный
Битрейт : 640 Кбит/сек
Каналы : 6 каналов
Расположение каналов : Front: L C R, Side: L R, LFE
Частота : 48,0 КГц
Битовая глубина : 16 бит
Метод сжатия : С потерями
Размер потока : 404 Мбайт (3%)
Язык : Ukrainian
Default : Нет
Forced : Нет
Аудио #3
Идентификатор : 4
Формат : AC-3
Формат/Информация : Audio Coding 3
Расширение режима : CM (complete main)
Параметр Endianness формата : Big
Режим смешивания : Header stripping
Идентификатор кодека : A_AC3
Продолжительность : 1 ч. 28 м.
Вид битрейта : Постоянный
Битрейт : 640 Кбит/сек
Каналы : 6 каналов
Расположение каналов : Front: L C R, Side: L R, LFE
Частота : 48,0 КГц
Битовая глубина : 16 бит
Метод сжатия : С потерями
Размер потока : 404 Мбайт (3%)
Язык : English
Default : Нет
Forced : Нет
Меню
00:00:00.000 : en:(01)00:00:00:000
00:02:38.783 : en:(02)00:02:38:783
00:10:19.827 : en:(03)00:10:19:827
00:13:29.475 : en:(04)00:13:29:475
00:18:31.026 : en:(05)00:18:31:026
00:22:26.928 : en:(06)00:22:26:928
00:26:31.214 : en:(07)00:26:31:214
00:30:33.957 : en:(08)00:30:33:957
00:34:08.463 : en:(09)00:34:08:463
00:38:47.116 : en:(10)00:38:47:116
00:43:41.243 : en:(11)00:43:41:243
00:46:43.842 : en:(12)00:46:43:842
00:50:27.357 : en:(13)00:50:27:357
00:55:48.470 : en:(14)00:55:48:470
01:01:47.412 : en:(15)01:01:47:412
01:08:05.081 : en:(16)01:08:05:081
01:10:35.064 : en:(17)01:10:35:064
01:18:12.854 : en:(18)01:18:12:854
01:21:04.067 : en:(19)01:21:04:067
01:22:07.088 : en:(20)01:22:07:088
01:28:16.082 : en:(21)01:28:16:082
Скриншоты:

Особенности релиза:

Справа и слева у видеоряда обрезано по 248р, что дает возможность просмотра на полный экран (без черных полос) на телевизорах с соотношением сторон 16:9 без изменения пропорций. На мой взгляд плюсы данных рипов- это более глубокое восприятие 3D-эффектов (конечно там где они есть) К минусам отнесу- вынужденное обрезание кадра по бокам. Так-что господа- выбор за вами! Всем приятного просмотра!
Проверено на встроенном плейере ТВ Samsung-D6500Время раздачи: 24/7 - круглосуточно до 15 скачавших

[Цитировать]



Показать сообщения:    

Текущее время: 10-Дек 04:13

Часовой пояс: UTC + 3


Вы не можете начинать темы
Вы не можете отвечать на сообщения
Вы не можете редактировать свои сообщения
Вы не можете удалять свои сообщения
Вы не можете голосовать в опросах
Вы не можете прикреплять файлы к сообщениям
Вы не можете скачивать файлы

!ВНИМАНИЕ!
Сайт не предоставляет электронные версии произведений, а занимается лишь коллекционированием и каталогизацией ссылок, присылаемых и публикуемых на форуме нашими читателями. Если вы являетесь правообладателем какого-либо представленного материала и не желаете, чтобы ссылка на него находилась в нашем каталоге, свяжитесь с нами, и мы незамедлительно удалим ее. Файлы для обмена на трекере предоставлены пользователями сайта, и администрация не несет ответственности за их содержание. Просьба не заливать файлы, защищенные авторскими правами, а также файлы нелегального содержания!