[ Сегодня идет свободное скачивание без начисления Download ]


Статистика раздачи
Нет
 
   
 
Top  
 
 
-Фантом / The Darkest Hour (2011) BDRip-«Survive The Holidays»- Русское название: Фантом
Оригинальное название: The Darkest Hour
Год выпуска: 2011
Жанр: Фантастика, Триллер
Описание фильма:
Фильм расскажет про четырех американских туристов, оказавшихся в Москве в момент нападения на нее инопланетян.
Режиссер: Крис Горак
Актеры: Эмиль Хирш, Оливия Тирлби, Макс Мингелла, Рэйчел Тейлор, Юэль Киннаман, Вероника Вернадская, Дато Бахтадзе, Гоша Куценко, Николай Ефремов, Артур Смольянинов.
Продолжительность: 01:29:16
Перевод: Дублированный

Дата мировой премьеры: 22 декабря 2011
Дата российской премьеры: 22 декабря 2011, «Двадцатый Век Фокс СНГ»
Дата выхода DVD релиза: 26 апреля 2012, «Двадцатый Век Фокс СНГ»
Дата выхода BLU-RAY релиза: 26 апреля 2012, «Двадцатый Век Фокс СНГ»
Видеокодек: MPEG-4 AVC/H.264
Битрейт видео: ~9143 Кбит/сек
Размер кадра: 1920x1080
Качество видео: BDRip
Аудио №1: AC3 5.1, 640 kbps - Русский
Аудио №2: AC3 5.1, 448 kbps - Украинский
Аудио №3: AC3 5.1, 640 kbps - Английский
Сэмпл: Ссылка

Media info:

Общее
Уникальный идентификатор : 208772303342991243408005337202742554903 (0x9D1015433422010E8BAA13F761D07117)
Полное имя : H:\my films\THE_DARKEST_HOUR_3D.mkv
Формат : Matroska
Версия формата : Version 2
Размер файла : 6,92 Гбайт
Продолжительность : 1 ч. 29 м.
Общий поток : 11,1 Мбит/сек
Название фильма : THE_DARKEST_HOUR_3D_crop_over/under
Дата кодирования : UTC 2012-12-03 18:35:19
Программа кодирования : mkvmerge v5.8.0 ('No Sleep / Pillow') built on Sep 2 2012 15:37:04
Библиотека кодирования : libebml v1.2.3 + libmatroska v1.3.0
Видео
Идентификатор : 1
Формат : AVC
Формат/Информация : Advanced Video Codec
Профиль формата : [email protected]
Параметр CABAC формата : Да
Параметр ReFrames формата : 4 кадра
Режим смешивания : Header stripping
Идентификатор кодека : V_MPEG4/ISO/AVC
Продолжительность : 1 ч. 29 м.
Битрейт : 9143 Кбит/сек
Ширина : 1920 пикселей
Высота : 1080 пикселей
Соотношение сторон : 16:9
Режим частоты кадров : Постоянный
Частота кадров : 23,976 кадра/сек
Цветовое пространство : YUV
Субдискретизация насыщенности : 4:2:0
Битовая глубина : 8 бит
Тип развёртки : Прогрессивная
Бит/(Пиксели*Кадры) : 0.184
Размер потока : 5,70 Гбайт (82%)
Заголовок : rip by I/N
Библиотека кодирования : x264 core 128 r2216M 198a7ea
Настройки программы : cabac=1 / ref=4 / deblock=1:-3:-3 / analyse=0x3:0x133 / me=tesa / subme=10 / psy=1 / psy_rd=1.00:0.20 / mixed_ref=1 / me_range=16 / chroma_me=1 / trellis=2 / 8x8dct=1 / cqm=1 / deadzone=21,11 / fast_pskip=1 / chroma_qp_offset=-3 / threads=4 / lookahead_threads=1 / sliced_threads=0 / nr=0 / decimate=1 / interlaced=0 / bluray_compat=0 / constrained_intra=0 / bframes=4 / b_pyramid=2 / b_adapt=2 / b_bias=0 / direct=2 / weightb=1 / open_gop=0 / weightp=2 / keyint=230 / keyint_min=23 / scenecut=60 / intra_refresh=0 / rc_lookahead=60 / rc=crf / mbtree=1 / crf=16.0 / qcomp=0.60 / qpmin=10 / qpmax=60 / qpstep=6 / vbv_maxrate=40000 / vbv_bufsize=30000 / crf_max=30.0 / nal_hrd=none / ip_ratio=1.40 / aq=1:0.70
Язык : English
Default : Да
Forced : Нет
Аудио #1
Идентификатор : 2
Формат : AC-3
Формат/Информация : Audio Coding 3
Расширение режима : CM (complete main)
Параметр Endianness формата : Big
Режим смешивания : Header stripping
Идентификатор кодека : A_AC3
Продолжительность : 1 ч. 29 м.
Вид битрейта : Постоянный
Битрейт : 640 Кбит/сек
Каналы : 6 каналов
Расположение каналов : Front: L C R, Side: L R, LFE
Частота : 48,0 КГц
Битовая глубина : 16 бит
Метод сжатия : С потерями
Размер потока : 409 Мбайт (6%)
Язык : Russian
Default : Да
Forced : Нет
Аудио #2
Идентификатор : 3
Формат : AC-3
Формат/Информация : Audio Coding 3
Расширение режима : CM (complete main)
Параметр Endianness формата : Big
Режим смешивания : Header stripping
Идентификатор кодека : A_AC3
Продолжительность : 1 ч. 29 м.
Вид битрейта : Постоянный
Битрейт : 448 Кбит/сек
Каналы : 6 каналов
Расположение каналов : Front: L C R, Side: L R, LFE
Частота : 48,0 КГц
Битовая глубина : 16 бит
Метод сжатия : С потерями
Размер потока : 286 Мбайт (4%)
Язык : Ukrainian
Default : Нет
Forced : Нет
Аудио #3
Идентификатор : 4
Формат : AC-3
Формат/Информация : Audio Coding 3
Расширение режима : CM (complete main)
Параметр Endianness формата : Big
Режим смешивания : Header stripping
Идентификатор кодека : A_AC3
Продолжительность : 1 ч. 29 м.
Вид битрейта : Постоянный
Битрейт : 640 Кбит/сек
Каналы : 6 каналов
Расположение каналов : Front: L C R, Side: L R, LFE
Частота : 48,0 КГц
Битовая глубина : 16 бит
Метод сжатия : С потерями
Размер потока : 409 Мбайт (6%)
Язык : English
Default : Нет
Forced : Нет
Скриншоты:

Особенности релиза:

Справа и слева у видеоряда обрезано по 248р, что дает возможность просмотра на полный экран (без черных полос) на телевизорах с соотношением сторон 16:9 без изменения пропорций. На мой взгляд плюсы данных рипов- это более глубокое восприятие 3D-эффектов (конечно там где они есть) К минусам отнесу- вынужденное обрезание кадра по бокам. Так-что господа- выбор за вами! Всем приятного просмотра!
Проверено на встроенном плейере ТВ Samsung-D6500Время раздачи: 24/7 - круглосуточно до 15 скачавших

[Цитировать]



Показать сообщения:    

Текущее время: 06-Дек 15:11

Часовой пояс: UTC + 3


Вы не можете начинать темы
Вы не можете отвечать на сообщения
Вы не можете редактировать свои сообщения
Вы не можете удалять свои сообщения
Вы не можете голосовать в опросах
Вы не можете прикреплять файлы к сообщениям
Вы не можете скачивать файлы

!ВНИМАНИЕ!
Сайт не предоставляет электронные версии произведений, а занимается лишь коллекционированием и каталогизацией ссылок, присылаемых и публикуемых на форуме нашими читателями. Если вы являетесь правообладателем какого-либо представленного материала и не желаете, чтобы ссылка на него находилась в нашем каталоге, свяжитесь с нами, и мы незамедлительно удалим ее. Файлы для обмена на трекере предоставлены пользователями сайта, и администрация не несет ответственности за их содержание. Просьба не заливать файлы, защищенные авторскими правами, а также файлы нелегального содержания!