[ Сегодня идет свободное скачивание без начисления Download ]


Статистика раздачи
Нет
 
   
 
Top  
 
 
-Пункт назначения 4 / The Final Destination (2009) BDRip- Русское название: Пункт назначения 4
Оригинальное название: The Final Destination
Год выпуска: 2009
Жанр: Ужасы, Триллер
Описание фильма:
История на этот раз вращается вокруг Ника О`Бэннона, к молодому человеку приходит видение — на автогонках произойдет ужасная трагедия, жертвами которой станут его друзья и он сам. Как и прежде группе счастливчиков, благодаря Нику, удается выжить, но смерть вовсе не спешит вычеркивать их из своего списка.
Режиссер: Дэвид Р. Эллис
Актеры: Бобби Кампо, Шантель Ван Сантен, Ник Зано, Хейли Уэбб, Майкелти Уильямсон, Криста Аллен, Эндрю Фисцелла, Джастин Уэлборн, Стефани Онор, Лара Грай.
Продолжительность: 01:21:47
Перевод: Дублированный

Дата мировой премьеры: 26 августа 2009
Дата российской премьеры: 9 сентября 2009,
Дата выхода DVD релиза: 26 января 2010
Дата выхода BLUE-RAY релиза: 26 января 2010
Видеокодек: MPEG-4 AVC/H.264
Битрейт видео: ~14,3 Мбит/сек
Размер кадра: 1920x1080
Качество видео: BDRip
Аудио #1(русский):AC3 5.1 (640 Кбит/сек)
Аудио #1(английский):AC3 5.1 (640 Кбит/сек)
Сэмпл: Ссылка

Media info

Общее
Уникальный идентификатор : 246187904088966862629251191652257783422 (0xB93610CDFC41A2D4A48A4BA540D25E7E)
Полное имя : H:\my films\FINAL_DESTINATION_4_3D.mkv
Формат : Matroska
Версия формата : Version 2
Размер файла : 9,08 Гбайт
Продолжительность : 1 ч. 21 м.
Общий поток : 15,9 Мбит/сек
Название фильма : FINAL_DESTINATION_4_3D_crop_over/under
Дата кодирования : UTC 2012-11-15 18:14:27
Программа кодирования : mkvmerge v5.8.0 ('No Sleep / Pillow') built on Sep 2 2012 15:37:04
Библиотека кодирования : libebml v1.2.3 + libmatroska v1.3.0
Видео
Идентификатор : 1
Формат : AVC
Формат/Информация : Advanced Video Codec
Профиль формата : High@L4.1
Параметр CABAC формата : Да
Параметр ReFrames формата : 4 кадра
Режим смешивания : Header stripping
Идентификатор кодека : V_MPEG4/ISO/AVC
Битрейт : 14,3 Мбит/сек
Ширина : 1920 пикселей
Высота : 1080 пикселей
Соотношение сторон : 16:9
Режим частоты кадров : Переменный
Цветовое пространство : YUV
Субдискретизация насыщенности : 4:2:0
Битовая глубина : 8 бит
Тип развёртки : Прогрессивная
Заголовок : rip by I/N
Библиотека кодирования : x264 core 128 r2216M 198a7ea
Настройки программы : cabac=1 / ref=4 / deblock=1:-3:-3 / analyse=0x3:0x133 / me=esa / subme=10 / psy=1 / psy_rd=1.00:0.20 / mixed_ref=1 / me_range=16 / chroma_me=1 / trellis=2 / 8x8dct=1 / cqm=1 / deadzone=21,11 / fast_pskip=1 / chroma_qp_offset=-3 / threads=4 / lookahead_threads=1 / sliced_threads=0 / nr=0 / decimate=1 / interlaced=0 / bluray_compat=0 / constrained_intra=0 / bframes=4 / b_pyramid=2 / b_adapt=2 / b_bias=0 / direct=1 / weightb=1 / open_gop=0 / weightp=2 / keyint=230 / keyint_min=23 / scenecut=60 / intra_refresh=0 / rc_lookahead=60 / rc=crf / mbtree=1 / crf=16.0 / qcomp=0.60 / qpmin=10 / qpmax=60 / qpstep=6 / vbv_maxrate=40000 / vbv_bufsize=30000 / crf_max=30.0 / nal_hrd=none / ip_ratio=1.40 / aq=1:0.70
Язык : English
Default : Да
Forced : Нет
Аудио #1
Идентификатор : 2
Формат : AC-3
Формат/Информация : Audio Coding 3
Расширение режима : CM (complete main)
Параметр Endianness формата : Big
Режим смешивания : Header stripping
Идентификатор кодека : A_AC3
Продолжительность : 1 ч. 21 м.
Вид битрейта : Постоянный
Битрейт : 640 Кбит/сек
Каналы : 6 каналов
Расположение каналов : Front: L C R, Side: L R, LFE
Частота : 48,0 КГц
Битовая глубина : 16 бит
Метод сжатия : С потерями
Размер потока : 374 Мбайт (4%)
Язык : Russian
Default : Да
Forced : Нет
Аудио #2
Идентификатор : 3
Формат : AC-3
Формат/Информация : Audio Coding 3
Расширение режима : CM (complete main)
Параметр Endianness формата : Big
Режим смешивания : Header stripping
Идентификатор кодека : A_AC3
Продолжительность : 1 ч. 21 м.
Вид битрейта : Постоянный
Битрейт : 640 Кбит/сек
Каналы : 6 каналов
Расположение каналов : Front: L C R, Side: L R, LFE
Частота : 48,0 КГц
Битовая глубина : 16 бит
Метод сжатия : С потерями
Размер потока : 374 Мбайт (4%)
Язык : English
Default : Нет
Forced : Нет
Скриншоты:

Особенности релиза

Справа и слева у видеоряда обрезано по 248р, что дает возможность просмотра на полный экран (без черных полос) на телевизорах с соотношением сторон 16:9 без изменения пропорций. На мой взгляд плюсы данных рипов- это более глубокое восприятие 3D-эффектов (конечно там где они есть) К минусам отнесу- вынужденное обрезание кадра по бокам. Так-что господа- выбор за вами! Всем приятного просмотра!
Время раздачи: 24/7 - круглосуточно до 15 скачавших

[Цитировать]



Показать сообщения:    

Текущее время: 03-Дек 01:19

Часовой пояс: UTC + 3


Вы не можете начинать темы
Вы не можете отвечать на сообщения
Вы не можете редактировать свои сообщения
Вы не можете удалять свои сообщения
Вы не можете голосовать в опросах
Вы не можете прикреплять файлы к сообщениям
Вы не можете скачивать файлы

!ВНИМАНИЕ!
Сайт не предоставляет электронные версии произведений, а занимается лишь коллекционированием и каталогизацией ссылок, присылаемых и публикуемых на форуме нашими читателями. Если вы являетесь правообладателем какого-либо представленного материала и не желаете, чтобы ссылка на него находилась в нашем каталоге, свяжитесь с нами, и мы незамедлительно удалим ее. Файлы для обмена на трекере предоставлены пользователями сайта, и администрация не несет ответственности за их содержание. Просьба не заливать файлы, защищенные авторскими правами, а также файлы нелегального содержания!