[ Сегодня идет свободное скачивание без начисления Download ]


Статистика раздачи
Нет
 
   
 
Top  
 
 
-Юлия Икс / Julia X 3D (2011) BDRip [1080p]- Русское название: Юлия Икс
Оригинальное название: Julia X 3D
Год выпуска: 2011
Производство: США / Julia X
Жанр: Триллер, Ужасы-Описание фильма:
Неуловимый серийный маньяк орудует в городе, знакомится со своими будущими жертвами через интернет. После встречается, похищает, пытает, клеймит их по алфату, убивает и избавляется от тел разным способом, при этом постоянно слушая в плеере любимого исполнителя. И вот она - очередная жертва, все как обычно: знакомство, похищение, небольшие пытки, клеймо, но... Но новенькая девочка оказалась не такой уж простушкой и умудряется сбежать от него, при это не раз побив его и давая постоянно отпор. Так кто же она жертва или... ?-Режиссер: П.Дж. Петтьетте
Продюсер: Грег Холл, П.Дж. Петтьетте
Актеры: Валери Эзлинн, Кевин Сорбо, Алисия Ли Уиллис, Джоэль Мур, Винг Реймз, Саксон Шарбино, Грегг Браззел, Мэг Рэйнс-Продолжительность: 01:32:00
Перевод: Многоголосый закадровый, любительский [ViruseProject]
Стереоформат: Вертикальная анаморфная стереопара
Порядок ракурсов: левый ракурс первый- -Дата мировой премьеры: 24 сентября 2011-Видеокодек: MPEG4 AVC
Битрейт видео: ~10.1 Мбит/с
Размер кадра: 1920x1080
Качество видео: BDRip
Аудиокодек: AC3 5.1
Битрейт аудио: 384 Кбит/с

MediaInfo

Общее
Уникальный идентификатор : 177067723842214615233942305651802364284 (0x853600CEA6456DB096DF4F14FFE9D97C)
Полное имя : D:\торрент-раздачи\Юлия Икс.mkv
Формат : Matroska
Версия формата : Version 2
Размер файла : 6,81 Гбайт
Продолжительность : 1 ч. 31 м.
Общий поток : 10,6 Мбит/сек
Название фильма : Julia X 3D
Дата кодирования : UTC 2012-11-02 12:47:19
Программа кодирования : mkvmerge v4.0.0 ('The Stars were mine') сборка от Jun 6 2010 16:18:42
Библиотека кодирования : libebml v1.0.0 + libmatroska v1.0.0
Видео
Идентификатор : 1
Формат : AVC
Формат/Информация : Advanced Video Codec
Профиль формата : [email protected]
Параметр CABAC формата : Да
Параметр ReFrames формата : 2 кадра
Идентификатор кодека : V_MPEG4/ISO/AVC
Продолжительность : 1 ч. 31 м.
Битрейт : 10,0 Мбит/сек
Ширина : 1920 пикселей
Высота : 1080 пикселей
Соотношение сторон : 16:9
Режим частоты кадров : Постоянный
Частота кадров : 23,976 кадра/сек
Цветовое пространство : YUV
Субдискретизация насыщенности : 4:2:0
Битовая глубина : 8 бит
Тип развёртки : Прогрессивная
Бит/(Пиксели*Кадры) : 0.201
Размер потока : 6,43 Гбайт (94%)
Библиотека кодирования : x264 core
Default : Нет
Forced : Нет
Основные цвета : BT.709
Характеристики трансфера : BT.709
Коэффициенты матрицы : BT.709
Аудио
Идентификатор : 2
Формат : AC-3
Формат/Информация : Audio Coding 3
Расширение режима : CM (complete main)
Параметр Endianness формата : Big
Идентификатор кодека : A_AC3
Продолжительность : 1 ч. 31 м.
Вид битрейта : Постоянный
Битрейт : 384 Кбит/сек
Каналы : 6 каналов
Расположение каналов : Front: L C R, Side: L R, LFE
Частота : 48,0 КГц
Битовая глубина : 16 бит
Метод сжатия : С потерями
Размер потока : 253 Мбайт (4%)
Язык : Russian
Default : Да
Forced : Нет
Меню
00:00:00.000 : en:(01)00:00:00:000
00:08:47.818 : en:(02)00:08:47:818
00:17:22.332 : en:(03)00:17:22:332
00:22:38.899 : en:(04)00:22:38:899
00:31:29.596 : en:(05)00:31:29:596
00:40:31.303 : en:(06)00:40:31:303
00:46:01.717 : en:(07)00:46:01:717
00:52:41.449 : en:(08)00:52:41:449
00:59:38.950 : en:(09)00:59:38:950
01:09:19.780 : en:(10)01:09:19:780
01:15:26.230 : en:(11)01:15:26:230
01:22:01.124 : en:(12)01:22:01:124
01:32:00.515 : en:(13)01:32:00:515
Скриншоты: Время раздачи: 24/7

[Цитировать]



Показать сообщения:    

Текущее время: 04-Дек 23:28

Часовой пояс: UTC + 3


Вы не можете начинать темы
Вы не можете отвечать на сообщения
Вы не можете редактировать свои сообщения
Вы не можете удалять свои сообщения
Вы не можете голосовать в опросах
Вы не можете прикреплять файлы к сообщениям
Вы не можете скачивать файлы

!ВНИМАНИЕ!
Сайт не предоставляет электронные версии произведений, а занимается лишь коллекционированием и каталогизацией ссылок, присылаемых и публикуемых на форуме нашими читателями. Если вы являетесь правообладателем какого-либо представленного материала и не желаете, чтобы ссылка на него находилась в нашем каталоге, свяжитесь с нами, и мы незамедлительно удалим ее. Файлы для обмена на трекере предоставлены пользователями сайта, и администрация не несет ответственности за их содержание. Просьба не заливать файлы, защищенные авторскими правами, а также файлы нелегального содержания!