[ Сегодня идет свободное скачивание без начисления Download ]


Статистика раздачи
Нет
 
   
 
 
 
-Отверженные / Les Miserables-«Борьба. Мечта. Надежда. Любовь.»- Русское название: Отверженные
Оригинальное название: Les Miserables
Год выпуска: 2012
Производство: США, Великобритания / Working Title Films
Жанр: Мьюзикл, Драма, Мелодрама
Описание фильма:
Действие развивается в начале XIX столетия. Беглый каторжник Жан Вальжан, приговоренный к тюремному заключению, вынужден долгие годы скрываться от жестокого правосудия. Инспектор парижской полиции Жавер считает его поимку делом всей своей жизни. После смерти Фантины — женщины, за судьбу которой Жан Вальжан считал себя в ответе, — единственным близким ему человеком остается ее дочь Козетта. Ради счастья девушки Жан готов на все.
Режиссер: Том Хупер
Актеры: Аманда Сэйфрид, Энн Хэтэуэй, Хью Джекман, Хелена Бонем Картер, Рассел Кроу, Саша Барон Коэн, Аарон Твейт, Эдди Редмэйн
Продолжительность: 02:37:59
Перевод: Двуголосый закадровый, любительский
Язык субтитров: Русский, Английский
Вид субтитров: Вшитые, отключаемые

Дата мировой премьеры: 5 декабря 2012
Дата российской премьеры: 7 февраля 2013, «UPI»
Дата выхода DVD релиза: 25 апреля 2013, «Двадцатый Век Фокс СНГ»-Видеокодек: MPEG-4 AVC/H.264
Битрейт видео: ~8403 kbps
Размер кадра: 1920 x 1040
Качество видео: BDRip
Аудиокодек: AC3 2.0 / DTS
Аудио 1: Русский, AC3 2.0, 192 kbps, 48 kHz
Аудио 2: Английский, DTS 5.1, 1510 kbps, 48 kHz-Сэмпл: Ссылка-

MediaInfo:

Общее
Уникальный идентификатор : 220823876822629334263960084857068829831 (0xA62121B5D5DCDD02999F16B72D4DBC87)
Полное имя : D:\Films\Les.Miserables.2012.1080p.BDRip.mkv
Формат : Matroska
Версия формата : Version 2
Размер файла : 11,1 Гбайт
Продолжительность : 2 ч. 37 м.
Общий поток : 10,1 Мбит/сек
Дата кодирования : UTC 2013-03-08 10:37:06
Программа кодирования : mkvmerge v5.2.0 ('I can't explain') built on Dec 18 2011 18:12:03
Библиотека кодирования : libebml v1.2.3 + libmatroska v1.3.0
Видео
Идентификатор : 1
Формат : AVC
Формат/Информация : Advanced Video Codec
Профиль формата : High@L4.1
Параметр CABAC формата : Да
Параметр ReFrames формата : 4 кадра
Идентификатор кодека : V_MPEG4/ISO/AVC
Продолжительность : 2 ч. 37 м.
Битрейт : 8403 Кбит/сек
Ширина : 1920 пикселей
Высота : 1040 пикселей
Соотношение сторон : 16:9
Частота кадров : 23,976 кадра/сек
Цветовое пространство : YUV
Субдискретизация насыщенности : 4:2:0
Битовая глубина : 8 бит
Тип развёртки : Прогрессивная
Бит/(Пиксели*Кадры) : 0.176
Размер потока : 9,05 Гбайт (81%)
Библиотека кодирования : x264 core 130 r2273 b3065e6
Настройки программы : cabac=1 / ref=4 / deblock=1:0:0 / analyse=0x3:0x133 / me=umh / subme=7 / psy=1 / psy_rd=1.00:0.00 / mixed_ref=1 / me_range=16 / chroma_me=1 / trellis=1 / 8x8dct=1 / cqm=0 / deadzone=21,11 / fast_pskip=0 / chroma_qp_offset=-2 / threads=36 / lookahead_threads=6 / sliced_threads=0 / nr=0 / decimate=1 / interlaced=0 / bluray_compat=0 / constrained_intra=0 / bframes=3 / b_pyramid=2 / b_adapt=1 / b_bias=0 / direct=1 / weightb=1 / open_gop=0 / weightp=2 / keyint=250 / keyint_min=23 / scenecut=40 / intra_refresh=0 / rc_lookahead=40 / rc=2pass / mbtree=1 / bitrate=8403 / ratetol=1.0 / qcomp=0.60 / qpmin=0 / qpmax=69 / qpstep=4 / cplxblur=20.0 / qblur=0.5 / ip_ratio=1.40 / aq=1:1.00
Язык : English
Default : Да
Forced : Нет
Аудио #1
Идентификатор : 2
Формат : AC-3
Формат/Информация : Audio Coding 3
Расширение режима : CM (complete main)
Идентификатор кодека : A_AC3
Продолжительность : 2 ч. 37 м.
Вид битрейта : Постоянный
Битрейт : 192 Кбит/сек
Каналы : 2 канала
Расположение каналов : Front: L R
Частота : 48,0 КГц
Битовая глубина : 16 бит
Метод сжатия : С потерями
Размер потока : 217 Мбайт (2%)
Заголовок : DVO
Язык : Russian
Default : Да
Forced : Нет
Аудио #2
Идентификатор : 3
Формат : DTS
Формат/Информация : Digital Theater Systems
Идентификатор кодека : A_DTS
Продолжительность : 2 ч. 37 м.
Вид битрейта : Постоянный
Битрейт : 1510 Кбит/сек
Каналы : 6 каналов
Расположение каналов : Front: L C R, Side: L R, LFE
Частота : 48,0 КГц
Битовая глубина : 24 бит
Метод сжатия : С потерями
Размер потока : 1,67 Гбайт (15%)
Язык : English
Default : Нет
Forced : Нет
Текст #1
Идентификатор : 4
Формат : UTF-8
Идентификатор кодека : S_TEXT/UTF8
Идентификатор кодека/Информация : UTF-8 Plain Text
Язык : Russian
Default : Нет
Forced : Нет
Текст #2
Идентификатор : 5
Формат : UTF-8
Идентификатор кодека : S_TEXT/UTF8
Идентификатор кодека/Информация : UTF-8 Plain Text
Язык : English
Default : Нет
Forced : Нет
Меню
00:00:00.000 : en:00:00:00.000
00:07:22.817 : en:00:07:22.817
00:14:31.996 : en:00:14:31.996
00:22:22.967 : en:00:22:22.967
00:31:52.619 : en:00:31:52.619
00:40:13.661 : en:00:40:13.661
00:45:14.295 : en:00:45:14.295
00:52:43.494 : en:00:52:43.494
01:00:40.846 : en:01:00:40.846
01:06:41.122 : en:01:06:41.122
01:15:51.088 : en:01:15:51.088
01:20:21.650 : en:01:20:21.650
01:27:04.344 : en:01:27:04.344
01:35:34.729 : en:01:35:34.729
01:42:10.291 : en:01:42:10.291
01:52:20.859 : en:01:52:20.859
02:03:01.082 : en:02:03:01.082
02:10:09.343 : en:02:10:09.343
02:21:18.178 : en:02:21:18.178
02:29:41.347 : en:02:29:41.347
-Скриншоты:
-

[Цитировать]



Показать сообщения:    

Текущее время: 08-Дек 21:13

Часовой пояс: UTC + 3


Вы не можете начинать темы
Вы не можете отвечать на сообщения
Вы не можете редактировать свои сообщения
Вы не можете удалять свои сообщения
Вы не можете голосовать в опросах
Вы не можете прикреплять файлы к сообщениям
Вы не можете скачивать файлы

!ВНИМАНИЕ!
Сайт не предоставляет электронные версии произведений, а занимается лишь коллекционированием и каталогизацией ссылок, присылаемых и публикуемых на форуме нашими читателями. Если вы являетесь правообладателем какого-либо представленного материала и не желаете, чтобы ссылка на него находилась в нашем каталоге, свяжитесь с нами, и мы незамедлительно удалим ее. Файлы для обмена на трекере предоставлены пользователями сайта, и администрация не несет ответственности за их содержание. Просьба не заливать файлы, защищенные авторскими правами, а также файлы нелегального содержания!