[ Сегодня идет свободное скачивание без начисления Download ]


Статистика раздачи
Нет
 
   
 
Top  
 
 
-Титаник 3Д / Titаnic 3D (1997) BDRip [1080p]-«Ничто на Земле не сможет разлучить их»
Русское название: Титaник
Оригинальное название: Titаnic
Страна: США (20th Century Fox, Paramount Pictures, Lightstorm Entertainment)
Год выпуска: 1997
Жанр: Драма, Мелодрама
Описание фильма:
Фильм о любви, который потряс весь мир и по праву может называться самым знаменитым фильмом мирового кинематографа. Звезды Голливуда Леонардо Ди Каприо и Кейт Уинслет блистают на экране в ролях молодых влюбленных Джека и Розы, которые находят друг друга в первом и последнем плавании "непотопляемого" "Титаника". Они не могли знать, что шикарный лайнер столкнется с айсбергом в холодных водах Северной Атлантики, и их страстная любовь превратится в схватку со смертью.
О фильме и ре-релизе 2012: 11 премий «Оскар», 4 премии «Золотой глобус» и множество других наград навечно вписали фильм Титаник в историю мирового кинематографа, а герои Леонардо ДиКаприо и Кейт Уинслет навсегда остались в сердцах миллионов людей по всему миру.
С момента величайшего кораблекрушения прошло ровно сто лет, но история Титаника еще не завершена. Признанный новатор в области передовых технологий и спецэффектов Джеймс Кэмерон вновь приглашает зрителей в кинотеатры. Всемирно-известная история любви, разворачивающаяся на фоне величайшей катастрофы прошлого века, еще никогда прежде не выглядела столь величественно и натурально. Новейшие достижения в области создания и передачи 3D-изображения позволят полнее ощутить невыдуманную трагедию гибели легендарного лайнера.
Хроника крушения «непотопляемого» Титаника вновь оживает в 3D!
Режиссер: Джеймс Кэмерон / James Cameron
Актеры:Леонардо ДиКаприо, Кейт Уинслет, Билли Зейн, Кэти Бэйтс, Фрэнсис Фишер, Глория Стюарт, Билл Пэкстон, Бернард Хилл, Дэвид Уорнер, Виктор Гарбер
Продолжительность: 03:14:54
Перевод: Русский (2хДубляжа + 2хMVO + DVO + 5хAVO) и Украинский дубляж
Язык субтитров: Русский, английский
Вид субтитров: Вшитые

Дата мировой премьеры: 1 ноября 1997
Дата российской премьеры: 20 февраля 1998
Ре-премьера: 5 апреля 2012
Видеокодек: H.264
Видео: AVC / 23,976 fps / 1920х1080p / 16.9 Mbps
Качество видео: BDRip (byAsh61)
Аудиокодек: AC3
Аудио:
#1 - Русский / AC3 / 48 KHz / 5.1 ch / 640 Kbps (Ду***ж - 2012 г.)
#2 - Русский / AC3 / 48 KHz / 5.1 ch / 448 Kbps (Ду***ж - 1997 г.)
#3 - Русский / AC3 / 48 KHz / 5.1 ch / 384 Kbps (MVO - Киномания)
#4 - Русский / AC3 / 48 KHz / 5.1 ch / 448 Kbps (DVO - Пётр Гланц и Инна Королева)
#5 - Украинский / AC3 / 48 KHz / 5.1 ch / 448 Kbps (Ду***ж - 2012 г.)
#6 - Английский / AC3 / 48 KHz / 5.1 ch / 640 Kbps (Original 2012 year)
Субтитры вшитые softsub (SRT):
#1 - Русские Полные в.1
#2 - Русские Полные в.2
#3 - English Full
Отдельными файлами - Аудио:
#1 - Русский / AC3 / 48 KHz / 5.1 ch / 448 Kbps (MVO - НТВ+ [перевод Юрия Сербина, озвучка Галина Исхакова и Александр Гаврилин])
#2 - Русский / AC3 / 48 KHz / 5.1 ch / 448 Kbps (AVO - Андрей Гаврилов)
#3 - Русский / AC3 / 48 KHz / 2 ch / 192 Kbps (AVO - Александр Кашкин)
#4 - Русский / AC3 / 48 KHz / 2 ch / 192 Kbps (AVO - Сергей Визгунов (ранний))
#5 - Русский / AC3 / 48 KHz / 2 ch / 192 Kbps (AVO - Сергей Визгунов (поздний))
#6 - Русский / AC3 / 48 KHz / 5.1 ch / 448 Kbps (AVO - Юрий Живов)

Медиаинфо:

Общее
Уникальный идентификатор : 215942054154596568204212759926616978441 (0xA274ED450D064396930B08B9E3217409)
Полное имя : H:\Titanic(3D)1997.2012.halfOU(Ash61)\Titanic(3D)1997.2012.halfOU(Ash61).mkv
Формат : Matroska
Версия формата : Version 2
Размер файла : 27,9 Гбайт
Продолжительность : 3 ч. 14 м.
Общий поток : 20,5 Мбит/сек
Название фильма : Ghosts of the Abyss (3D) 2003 (by Ash61)
Дата кодирования : UTC 2012-09-09 21:21:57
Программа кодирования : mkvmerge v3.4.0 ('Rapunzel') сборка от May 15 2010 09:38:20
Библиотека кодирования : libebml v0.8.0 + libmatroska v0.9.0
Видео
Идентификатор : 1
Формат : AVC
Формат/Информация : Advanced Video Codec
Профиль формата : High@L4.1
Параметр CABAC формата : Да
Параметр ReFrames формата : 4 кадра
Идентификатор кодека : V_MPEG4/ISO/AVC
Продолжительность : 3 ч. 14 м.
Битрейт : 16,9 Мбит/сек
Ширина : 1920 пикселей
Высота : 1080 пикселей
Соотношение сторон : 16:9
Частота кадров : 23,976 кадра/сек
Цветовое пространство : YUV
Субдискретизация насыщенности : 4:2:0
Битовая глубина : 8 бит
Тип развёртки : Прогрессивная
Бит/(Пиксели*Кадры) : 0.339
Размер потока : 23,0 Гбайт (82%)
Заголовок : BDrip by Ash61
Библиотека кодирования : x264 core 119 r2106 07efeb4
Настройки программы : cabac=1 / ref=4 / deblock=1:-3:-3 / analyse=0x3:0x113 / me=umh / subme=9 / psy=1 / psy_rd=1.00:0.15 / mixed_ref=1 / me_range=16 / chroma_me=1 / trellis=2 / 8x8dct=1 / cqm=0 / deadzone=21,11 / fast_pskip=1 / chroma_qp_offset=-3 / threads=3 / sliced_threads=0 / nr=0 / decimate=1 / interlaced=0 / bluray_compat=0 / constrained_intra=0 / bframes=6 / b_pyramid=2 / b_adapt=2 / b_bias=0 / direct=3 / weightb=1 / open_gop=0 / weightp=2 / keyint=250 / keyint_min=23 / scenecut=40 / intra_refresh=0 / rc_lookahead=60 / rc=crf / mbtree=1 / crf=16.0 / qcomp=0.60 / qpmin=10 / qpmax=51 / qpstep=4 / vbv_maxrate=40000 / vbv_bufsize=40000 / crf_max=0.0 / nal_hrd=none / frame-packing=4 / ip_ratio=1.40 / aq=1:0.70
Язык : English
Default : Да
Forced : Нет
Аудио #1
Идентификатор : 2
Формат : AC-3
Формат/Информация : Audio Coding 3
Расширение режима : CM (complete main)
Параметр Endianness формата : Big
Идентификатор кодека : A_AC3
Продолжительность : 3 ч. 14 м.
Вид битрейта : Постоянный
Битрейт : 640 Кбит/сек
Каналы : 6 каналов
Расположение каналов : Front: L C R, Side: L R, LFE
Частота : 48,0 КГц
Битовая глубина : 16 бит
Метод сжатия : С потерями
Размер потока : 892 Мбайт (3%)
Заголовок : Дубляж-2012 (BD)
Язык : Russian
Default : Да
Forced : Нет
Аудио #2
Идентификатор : 3
Формат : AC-3
Формат/Информация : Audio Coding 3
Расширение режима : CM (complete main)
Параметр Endianness формата : Big
Идентификатор кодека : A_AC3
Продолжительность : 3 ч. 14 м.
Вид битрейта : Постоянный
Битрейт : 448 Кбит/сек
Каналы : 6 каналов
Расположение каналов : Front: L C R, Side: L R, LFE
Частота : 48,0 КГц
Битовая глубина : 16 бит
Метод сжатия : С потерями
Размер потока : 625 Мбайт (2%)
Заголовок : Дубляж-1997 (R5)
Язык : Russian
Default : Нет
Forced : Нет
Аудио #3
Идентификатор : 4
Формат : AC-3
Формат/Информация : Audio Coding 3
Расширение режима : CM (complete main)
Параметр Endianness формата : Big
Идентификатор кодека : A_AC3
Продолжительность : 3 ч. 14 м.
Вид битрейта : Постоянный
Битрейт : 384 Кбит/сек
Каналы : 6 каналов
Расположение каналов : Front: L C R, Side: L R, LFE
Частота : 48,0 КГц
Битовая глубина : 16 бит
Метод сжатия : С потерями
Размер потока : 535 Мбайт (2%)
Заголовок : Многоголосый закадровый - Киномания
Язык : Russian
Default : Нет
Forced : Нет
Аудио #4
Идентификатор : 5
Формат : AC-3
Формат/Информация : Audio Coding 3
Расширение режима : CM (complete main)
Параметр Endianness формата : Big
Идентификатор кодека : A_AC3
Продолжительность : 3 ч. 14 м.
Вид битрейта : Постоянный
Битрейт : 640 Кбит/сек
Каналы : 6 каналов
Расположение каналов : Front: L C R, Side: L R, LFE
Частота : 48,0 КГц
Битовая глубина : 16 бит
Метод сжатия : С потерями
Размер потока : 892 Мбайт (3%)
Заголовок : Двухголосый закадровый - П.Гланц и И.Королёва
Язык : Russian
Default : Нет
Forced : Нет
Аудио #5
Идентификатор : 6
Формат : AC-3
Формат/Информация : Audio Coding 3
Расширение режима : CM (complete main)
Параметр Endianness формата : Big
Идентификатор кодека : A_AC3
Продолжительность : 3 ч. 14 м.
Вид битрейта : Постоянный
Битрейт : 448 Кбит/сек
Каналы : 6 каналов
Расположение каналов : Front: L C R, Side: L R, LFE
Частота : 48,0 КГц
Битовая глубина : 16 бит
Метод сжатия : С потерями
Размер потока : 625 Мбайт (2%)
Заголовок : Дубляж-2012 (BD)
Язык : Ukrainian
Default : Нет
Forced : Нет
Аудио #6
Идентификатор : 7
Формат : AC-3
Формат/Информация : Audio Coding 3
Расширение режима : CM (complete main)
Параметр Endianness формата : Big
Идентификатор кодека : A_AC3
Продолжительность : 3 ч. 14 м.
Вид битрейта : Постоянный
Битрейт : 640 Кбит/сек
Каналы : 6 каналов
Расположение каналов : Front: L C R, Side: L R, LFE
Частота : 48,0 КГц
Битовая глубина : 16 бит
Метод сжатия : С потерями
Размер потока : 892 Мбайт (3%)
Заголовок : Original
Язык : English
Default : Нет
Forced : Нет
Текст #1
Идентификатор : 8
Формат : UTF-8
Идентификатор кодека : S_TEXT/UTF8
Идентификатор кодека/Информация : UTF-8 Plain Text
Заголовок : Полные в.1
Язык : Russian
Default : Нет
Forced : Нет
Текст #2
Идентификатор : 9
Формат : UTF-8
Идентификатор кодека : S_TEXT/UTF8
Идентификатор кодека/Информация : UTF-8 Plain Text
Заголовок : Полные в.2
Язык : Russian
Default : Нет
Forced : Нет
Текст #3
Идентификатор : 10
Формат : UTF-8
Идентификатор кодека : S_TEXT/UTF8
Идентификатор кодека/Информация : UTF-8 Plain Text
Заголовок : Full
Язык : English
Default : Нет
Forced : Нет
Меню
00:00:00.000 : :1
00:01:24.376 : :2
00:04:39.988 : :3
00:08:26.131 : :4
00:10:46.771 : :5
00:12:52.647 : :6
00:16:52.428 : :7
00:20:07.748 : :8
00:23:38.876 : :9
00:26:26.543 : :10
00:29:03.367 : :11
00:29:37.526 : :12
00:34:59.931 : :13
00:36:48.623 : :14
00:42:59.160 : :15
00:45:26.098 : :16
00:47:11.620 : :17
00:53:33.043 : :18
00:56:47.988 : :19
01:05:32.053 : :20
01:10:19.966 : :21
01:14:06.358 : :22
01:16:10.691 : :23
01:19:59.044 : :24
01:22:50.507 : :25
01:23:40.056 : :26
01:28:21.629 : :27
01:29:19.854 : :28
01:32:52.275 : :29
01:36:59.105 : :30
01:44:41.150 : :31
01:46:21.041 : :32
01:47:58.847 : :33
01:50:11.104 : :34
01:52:21.401 : :35
01:53:54.327 : :36
01:55:21.831 : :37
01:56:10.880 : :38
01:57:53.232 : :39
02:06:38.340 : :40
02:08:49.972 : :41
02:11:22.082 : :42
02:15:42.550 : :43
02:19:43.458 : :44
02:21:24.559 : :45
02:25:28.761 : :46
02:27:28.422 : :47
02:29:07.271 : :48
02:29:56.695 : :49
02:33:31.535 : :50
02:36:52.360 : :51
02:38:33.878 : :52
02:40:34.666 : :53
02:45:00.640 : :54
02:47:48.808 : :55
02:49:22.526 : :56
02:52:09.610 : :57
02:53:41.327 : :58
02:57:53.495 : :59
02:59:35.305 : :60
03:01:29.252 : :61
03:03:13.648 : :62
03:04:57.877 : :63
03:07:19.644 : :64
Сэмпл: СсылкаПроверено на встроенных плейерах ТВ Samsung UE-C7000 и LG 42LW4500Скриншоты:
Время раздачи: С 07:00 до 24:00

[Цитировать]



Показать сообщения:    

Текущее время: 08-Дек 23:03

Часовой пояс: UTC + 3


Вы не можете начинать темы
Вы не можете отвечать на сообщения
Вы не можете редактировать свои сообщения
Вы не можете удалять свои сообщения
Вы не можете голосовать в опросах
Вы не можете прикреплять файлы к сообщениям
Вы не можете скачивать файлы

!ВНИМАНИЕ!
Сайт не предоставляет электронные версии произведений, а занимается лишь коллекционированием и каталогизацией ссылок, присылаемых и публикуемых на форуме нашими читателями. Если вы являетесь правообладателем какого-либо представленного материала и не желаете, чтобы ссылка на него находилась в нашем каталоге, свяжитесь с нами, и мы незамедлительно удалим ее. Файлы для обмена на трекере предоставлены пользователями сайта, и администрация не несет ответственности за их содержание. Просьба не заливать файлы, защищенные авторскими правами, а также файлы нелегального содержания!