[ Сегодня идет свободное скачивание без начисления Download ]


Статистика раздачи
Нет
 
   
 
Top  
 
 
-Титаник / Titanic (1997) BDRip
«Ничто на Земле не сможет разлучить их»
- Русское название: Титаник
Оригинальное название: Titanic
Год выпуска: 1997
Страна: США
Жанр: Драма, Мелодрама-Описание фильма:
Молодые влюбленные Джек и Роза находят друг друга в первом и последнем плавании «непотопляемого» Титаника. Они не могли знать, что шикарный лайнер столкнется с айсбергом в холодных водах Северной Атлантики, и их страстная любовь превратится в схватку со смертью…-Режиссер: Джеймс Кэмерон
Продюсер: Джеймс Кэмерон, Джон Ландау, Памела Исли
Актеры: Леонардо ДиКаприо, Кейт Уинслет, Билли Зейн, Кэти Бэйтс, Фрэнсис Фишер, Глория Стюарт, Билл Пэкстон, Бернард Хилл, Дэвид Уорнер, Виктор Гарбер-Продолжительность: 03:14:49
Перевод: Дублированный, Многоголосый (2 вида), Одноголосый (5 видов), Двухголосый
Язык субтитров: Русские (full, forced), Английские
Вид субтитров: Вшитые, отключаемые

Дата мировой премьеры: 1 ноября 1997
Дата российской премьеры: 20 февраля 1998, «Двадцатый Век Фокс СНГ»
Дата выхода DVD релиза: 30 октября 2008, «Двадцатый Век Фокс СНГ»
Дата выхода Blu-Ray релиза: 13 сентября 2012, «Двадцатый Век Фокс СНГ»-Качество видео: BDRip
Контейнер: MKV
Видеокодек: MPEG-4 AVC/H.264
Аудиокодек: AC-3, DTS
Видео: 1920x1080, 23.976 fps, ~11,0 mb/s
Аудио 1: Русский, AC-3, 448 kbps, 6 каналов, 16 bit, (L, C, R, l, r) + LFE - Дублированный (R5)
Аудио 2: Русский, AC-3, 384 kbps, 6 каналов, 16 bit, (L, C, R, l, r) + LFE - Многоголосый (Киномания)
Аудио 3: Русский, AC-3, 448 kbps, 6 каналов, 16 bit, (L, C, R, l, r) + LFE - Многоголосый (HTB+)
Аудио 4: Русский, AC-3, 448 kbps, 6 каналов, 16 bit, (L, C, R, l, r) + LFE - Одноголосый (Гаврилов)
Аудио 5: Русский, AC-3, 448 kbps, 6 каналов, 16 bit, (L, C, R, l, r) + LFE - Двухголосый (Гланц и Королёва)
Аудио 6: Русский, AC-3, 192 kbps, 2 канала, 16 bit, (L, R,) - Одноголосый (Визгунов, ранний)
Аудио 7: Русский, AC-3, 192 kbps, 2 канала, 16 bit, (L, R,) - Одноголосый (Визгунов, поздний)
Аудио 8: Русский, AC-3, 192 kbps, 2 канала, 16 bit, (L, R,) - Одноголосый (Живов)
Аудио 9: Русский, AC-3, 192 kbps, 2 канала, 16 bit, (L, R,) - Одноголосый (Кашкин)
Аудио 10: Английский, DTS, 1510 kbps, 6 каналов, 24 bit, (L, C, R, l, r) + LFE - Оригинал

MediaInfo

Формат : Matroska
Версия формата : Version 3 / Version 2
Размер файла : 21,5 Гбайт
Продолжительность : 3 ч. 14 м.
Общий поток : 15,8 Мбит/сек
Дата кодирования : UTC 2012-09-01 20:52:47
Программа кодирования : mkvmerge v5.7.0 ('The Whirlwind') built on Jul 8 2012 20:08:51
Библиотека кодирования : libebml v1.2.3 + libmatroska v1.3.0
Видео
Идентификатор : 1
Формат : AVC
Формат/Информация : Advanced Video Codec
Профиль формата : [email protected]
MultiView_Count : 2
MultiView_Layout : Side by Side (left eye first)
Параметр CABAC формата : Да
Параметр ReFrames формата : 4 кадра
Идентификатор кодека : V_MPEG4/ISO/AVC
Продолжительность : 3 ч. 14 м.
Битрейт : 11,0 Мбит/сек
Ширина : 1920 пикселей
Высота : 1080 пикселей
Соотношение сторон : 16:9
Режим частоты кадров : Постоянный
Частота кадров : 23,976 кадра/сек
Цветовое пространство : YUV
Субдискретизация насыщенности : 4:2:0
Битовая глубина : 8 бит
Тип развёртки : Прогрессивная
Бит/(Пиксели*Кадры) : 0.222
Размер потока : 15,0 Гбайт (70%)
Заголовок : Titanic.1997.3D
Библиотека кодирования : x264 core 125 r2208 d9d2288
Настройки программы : cabac=1 / ref=4 / deblock=1:-3:-3 / analyse=0x3:0x113 / me=umh / subme=9 / psy=1 / psy_rd=1.00:0.15 / mixed_ref=1 / me_range=16 / chroma_me=1 / trellis=1 / 8x8dct=1 / cqm=0 / deadzone=21,11 / fast_pskip=1 / chroma_qp_offset=-3 / threads=18 / lookahead_threads=3 / sliced_threads=0 / nr=0 / decimate=1 / interlaced=0 / bluray_compat=0 / constrained_intra=0 / bframes=3 / b_pyramid=2 / b_adapt=1 / b_bias=0 / direct=3 / weightb=1 / open_gop=0 / weightp=2 / keyint=250 / keyint_min=23 / scenecut=40 / intra_refresh=0 / rc_lookahead=40 / rc=crf / mbtree=1 / crf=19.0 / qcomp=0.60 / qpmin=10 / qpmax=69 / qpstep=4 / vbv_maxrate=40000 / vbv_bufsize=30000 / crf_max=0.0 / nal_hrd=none / ip_ratio=1.40 / aq=1:1.00
Язык : English
Default : Да
Forced : Нет
Аудио #1
Идентификатор : 2
Формат : AC-3
Формат/Информация : Audio Coding 3
Расширение режима : CM (complete main)
Параметр Endianness формата : Big
Идентификатор кодека : A_AC3
Продолжительность : 3 ч. 14 м.
Вид битрейта : Постоянный
Битрейт : 448 Кбит/сек
Каналы : 6 каналов
Расположение каналов : Front: L C R, Side: L R, LFE
Частота : 48,0 КГц
Битовая глубина : 16 бит
Метод сжатия : С потерями
Размер потока : 625 Мбайт (3%)
Заголовок : dub
Язык : Russian
Default : Да
Forced : Нет
Аудио #2
Идентификатор : 3
Формат : AC-3
Формат/Информация : Audio Coding 3
Расширение режима : CM (complete main)
Параметр Endianness формата : Big
Идентификатор кодека : A_AC3
Продолжительность : 3 ч. 14 м.
Вид битрейта : Постоянный
Битрейт : 384 Кбит/сек
Каналы : 6 каналов
Расположение каналов : Front: L C R, Side: L R, LFE
Частота : 48,0 КГц
Битовая глубина : 16 бит
Метод сжатия : С потерями
Размер потока : 535 Мбайт (2%)
Заголовок : mvo.киномания
Язык : Russian
Default : Нет
Forced : Нет
Аудио #3
Идентификатор : 4
Формат : AC-3
Формат/Информация : Audio Coding 3
Расширение режима : CM (complete main)
Параметр Endianness формата : Big
Идентификатор кодека : A_AC3
Продолжительность : 3 ч. 14 м.
Вид битрейта : Постоянный
Битрейт : 448 Кбит/сек
Каналы : 6 каналов
Расположение каналов : Front: L C R, Side: L R, LFE
Частота : 48,0 КГц
Битовая глубина : 16 бит
Метод сжатия : С потерями
Размер потока : 625 Мбайт (3%)
Заголовок : нтв+
Язык : Russian
Default : Нет
Forced : Нет
Аудио #4
Идентификатор : 5
Формат : AC-3
Формат/Информация : Audio Coding 3
Расширение режима : CM (complete main)
Параметр Endianness формата : Big
Идентификатор кодека : A_AC3
Продолжительность : 3 ч. 14 м.
Вид битрейта : Постоянный
Битрейт : 448 Кбит/сек
Каналы : 6 каналов
Расположение каналов : Front: L C R, Side: L R, LFE
Частота : 48,0 КГц
Битовая глубина : 16 бит
Метод сжатия : С потерями
Размер потока : 625 Мбайт (3%)
Заголовок : Гаврилов
Язык : Russian
Default : Нет
Forced : Нет
Аудио #5
Идентификатор : 6
Формат : AC-3
Формат/Информация : Audio Coding 3
Расширение режима : CM (complete main)
Параметр Endianness формата : Big
Идентификатор кодека : A_AC3
Продолжительность : 3 ч. 14 м.
Вид битрейта : Постоянный
Битрейт : 448 Кбит/сек
Каналы : 6 каналов
Расположение каналов : Front: L C R, Side: L R, LFE
Частота : 48,0 КГц
Битовая глубина : 16 бит
Метод сжатия : С потерями
Размер потока : 625 Мбайт (3%)
Заголовок : Гланц и Королёва
Язык : Russian
Default : Нет
Forced : Нет
Аудио #6
Идентификатор : 7
Формат : AC-3
Формат/Информация : Audio Coding 3
Расширение режима : CM (complete main)
Параметр Endianness формата : Big
Идентификатор кодека : A_AC3
Продолжительность : 3 ч. 14 м.
Вид битрейта : Постоянный
Битрейт : 192 Кбит/сек
Каналы : 2 канала
Расположение каналов : Front: L R
Частота : 48,0 КГц
Битовая глубина : 16 бит
Метод сжатия : С потерями
Размер потока : 268 Мбайт (1%)
Заголовок : Визгунов.(ранний)
Язык : Russian
Default : Нет
Forced : Нет
Аудио #7
Идентификатор : 8
Формат : AC-3
Формат/Информация : Audio Coding 3
Расширение режима : CM (complete main)
Параметр Endianness формата : Big
Идентификатор кодека : A_AC3
Продолжительность : 3 ч. 14 м.
Вид битрейта : Постоянный
Битрейт : 192 Кбит/сек
Каналы : 2 канала
Расположение каналов : Front: L R
Частота : 48,0 КГц
Битовая глубина : 16 бит
Метод сжатия : С потерями
Размер потока : 268 Мбайт (1%)
Заголовок : Визгунов.(поздний)
Язык : Russian
Default : Нет
Forced : Нет
Аудио #8
Идентификатор : 9
Формат : AC-3
Формат/Информация : Audio Coding 3
Расширение режима : CM (complete main)
Параметр Endianness формата : Big
Идентификатор кодека : A_AC3
Продолжительность : 3 ч. 14 м.
Вид битрейта : Постоянный
Битрейт : 192 Кбит/сек
Каналы : 2 канала
Расположение каналов : Front: L R
Частота : 48,0 КГц
Битовая глубина : 16 бит
Метод сжатия : С потерями
Размер потока : 268 Мбайт (1%)
Заголовок : Живов
Язык : Russian
Default : Нет
Forced : Нет
Аудио #9
Идентификатор : 10
Формат : AC-3
Формат/Информация : Audio Coding 3
Расширение режима : CM (complete main)
Параметр Endianness формата : Big
Идентификатор кодека : A_AC3
Продолжительность : 3 ч. 14 м.
Вид битрейта : Постоянный
Битрейт : 192 Кбит/сек
Каналы : 2 канала
Расположение каналов : Front: L R
Частота : 48,0 КГц
Битовая глубина : 16 бит
Метод сжатия : С потерями
Размер потока : 268 Мбайт (1%)
Заголовок : Кашкин
Язык : Russian
Default : Нет
Forced : Нет
Аудио #10
Идентификатор : 11
Формат : DTS
Формат/Информация : Digital Theater Systems
Идентификатор кодека : A_DTS
Продолжительность : 3 ч. 14 м.
Вид битрейта : Постоянный
Битрейт : 1510 Кбит/сек
Каналы : 6 каналов
Расположение каналов : Front: L C R, Side: L R, LFE
Частота : 48,0 КГц
Битовая глубина : 24 бит
Метод сжатия : С потерями
Размер потока : 2,06 Гбайт (10%)
Язык : English
Default : Нет
Forced : Нет
Текст #1
Идентификатор : 12
Формат : UTF-8
Идентификатор кодека : S_TEXT/UTF8
Идентификатор кодека/Информация : UTF-8 Plain Text
Язык : Russian
Default : Нет
Forced : Нет
Текст #2
Идентификатор : 13
Формат : UTF-8
Идентификатор кодека : S_TEXT/UTF8
Идентификатор кодека/Информация : UTF-8 Plain Text
Язык : Russian
Default : Нет
Forced : Нет
Текст #3
Идентификатор : 14
Формат : UTF-8
Идентификатор кодека : S_TEXT/UTF8
Идентификатор кодека/Информация : UTF-8 Plain Text
Язык : English
Default : Нет
Forced : Нет
Меню
00:00:00.000 : en:00:00:00.000
00:01:24.376 : en:00:01:24.376
00:04:39.988 : en:00:04:39.988
00:08:26.131 : en:00:08:26.131
00:10:46.771 : en:00:10:46.771
00:12:52.647 : en:00:12:52.647
00:16:52.428 : en:00:16:52.428
00:20:07.748 : en:00:20:07.748
00:23:38.876 : en:00:23:38.876
00:26:26.543 : en:00:26:26.543
00:29:03.367 : en:00:29:03.367
00:29:37.526 : en:00:29:37.526
00:34:59.931 : en:00:34:59.931
00:36:48.623 : en:00:36:48.623
00:42:59.160 : en:00:42:59.160
00:45:26.098 : en:00:45:26.098
00:47:11.620 : en:00:47:11.620
00:53:33.043 : en:00:53:33.043
00:56:47.988 : en:00:56:47.988
01:05:32.053 : en:01:05:32.053
01:10:19.966 : en:01:10:19.966
01:14:06.358 : en:01:14:06.358
01:16:10.691 : en:01:16:10.691
01:19:59.044 : en:01:19:59.044
01:22:50.507 : en:01:22:50.507
01:23:40.056 : en:01:23:40.056
01:28:21.629 : en:01:28:21.629
01:29:19.854 : en:01:29:19.854
01:32:52.275 : en:01:32:52.275
01:36:59.105 : en:01:36:59.105
01:44:41.150 : en:01:44:41.150
01:46:21.041 : en:01:46:21.041
01:50:12.257 : en:01:50:12.257
01:52:22.554 : en:01:52:22.554
01:53:55.480 : en:01:53:55.480
01:55:22.984 : en:01:55:22.984
01:56:12.033 : en:01:56:12.033
01:57:54.385 : en:01:57:54.385
02:06:39.493 : en:02:06:39.493
02:08:51.125 : en:02:08:51.125
02:11:23.235 : en:02:11:23.235
02:15:43.704 : en:02:15:43.704
02:19:44.611 : en:02:19:44.611
02:21:25.712 : en:02:21:25.712
02:25:29.914 : en:02:25:29.914
02:27:29.575 : en:02:27:29.575
02:29:08.424 : en:02:29:08.424
02:29:57.849 : en:02:29:57.849
02:33:32.688 : en:02:33:32.688
02:36:53.514 : en:02:36:53.514
02:38:35.032 : en:02:38:35.032
02:40:35.819 : en:02:40:35.819
02:45:01.793 : en:02:45:01.793
02:47:49.961 : en:02:47:49.961
02:49:23.680 : en:02:49:23.680
02:52:10.763 : en:02:52:10.763
02:53:42.480 : en:02:53:42.480
02:57:54.649 : en:02:57:54.649
02:59:36.459 : en:02:59:36.459
03:01:30.406 : en:03:01:30.406
03:03:14.802 : en:03:03:14.802
03:06:59.031 : en:03:06:59.031
03:07:20.798 : en:03:07:20.798
Скриншоты: Не забудь сказать - Всем приятного просмотра!!!Время раздачи: 24/7 до 5 сидов

[Цитировать]



Показать сообщения:    

Текущее время: 04-Дек 04:59

Часовой пояс: UTC + 3


Вы не можете начинать темы
Вы не можете отвечать на сообщения
Вы не можете редактировать свои сообщения
Вы не можете удалять свои сообщения
Вы не можете голосовать в опросах
Вы не можете прикреплять файлы к сообщениям
Вы не можете скачивать файлы

!ВНИМАНИЕ!
Сайт не предоставляет электронные версии произведений, а занимается лишь коллекционированием и каталогизацией ссылок, присылаемых и публикуемых на форуме нашими читателями. Если вы являетесь правообладателем какого-либо представленного материала и не желаете, чтобы ссылка на него находилась в нашем каталоге, свяжитесь с нами, и мы незамедлительно удалим ее. Файлы для обмена на трекере предоставлены пользователями сайта, и администрация не несет ответственности за их содержание. Просьба не заливать файлы, защищенные авторскими правами, а также файлы нелегального содержания!