[ Сегодня идет свободное скачивание без начисления Download ]


Статистика раздачи
Нет
 
   
 
Top  
 
 
-Уличные танцы 2 / StreetDance 2«В два раза больше энергии и страсти»-
Русское название: Уличные танцы 2
Оригинальное название: StreetDance 2
Год выпуска: 2012
Производство: Германия, Великобритания
Жанр: Мелодрама, Музыка
Перевод: Дублированный
Язык субтитров: Русский-Дата мировой премьеры: 29 марта 2012
Дата российской премьеры: 26 апреля 2012, «Парадиз»
Дата выхода DVD релиза: 31 июля 2012, «Парадиз Медиа»
Дата выхода Blu-Ray релиза: 31 июля 2012, «Парадиз Медиа»-Режиссер: Макс Джива, Дания Пасквин-Продюсер: Аллан Нибло, Джеймс Ричардсон, Хеннинг Фербер,-Актеры: Том Конти, Джордж Сэмпсон, София Бутелла, Фальк Хеншел, Джон Дагган, Стефани Нгуйен, Джоанна Джеффрис, Элла Рэгг, Мэтт Уильямс, Джеймс Майкл Ранкин-Описание фильма:
Уличный танцор Эш жаждет реванша за проигрыш на конкурсе Streetdance, и хочет собрать команду, которой не будет равных. В поисках, которые забрасывают его в самые разные уголки мира, Эш встречает девушку Еву, танцующую сальсу, и влюбляется в нее. В Еве он видит свое счастье, свой собственный танец, свою победу… Но завоевать сердце этой девушки не так просто.
Свобода самовыражения и мастерство импровизации, страсть сальсы и дерзость ринга — все это танцы, танцы, танцы — в школах, в клубах, на улицах Рима, Парижа, Лондона, Нью-Йорка.-
Продолжительность: 01:24:57
Качество видео: Blu-Ray 3D 1080p
Видеокодек: MPEG-4 AVC/H.264
Битрейт видео: ~ 22068 kbps
Размер кадра: 1920x1080 / 23,976 fps / 16:9 / High Profile 4.1
Аудиокодек: AC3 2.0 | DTS
Аудио #1: DTS-HD MA 5.1 2638 kbps 5.1 / 48 kHz / 2638 kbps / 16-bit (DTS Core: 5.1 / 48 kHz / 1509 kbps / 16-bit) [Английский]
Аудио #2: DTS-HD MA 5.1 2505 kbps 5.1 / 48 kHz / 2505 kbps / 16-bit (DTS Core: 5.1 / 48 kHz / 1509 kbps / 16-bit) [Русский, Дубляж]
Аудио #3: Dolby Digital 2.0 (192 kbps) [Русский, Дубляж]

Дополнительно на дике :

На съемочной площадке
Интервью с создателями фильма

Просмотр :

Просмотр рекомендован на специализированнном 3D оборудовании : 3D blu-ray player (ps3) + 3D телевизор, но также возможно просмотреть на любом оборудовании в 2д, или в 3д c простыми очками (в анаглифных очках смотреть можно без наличия 3д мониторов/телевизоров/проекторов), для этого смонтировать ISO в виртуальный привод при помощи соответствующего софта (DAEMON tools, Alcohol 120% и пр.), после чего воспроизвести через "ArcSoft TotalMedia Theatre 5" или "CyberLink" PowerDVD 10
В обычном режиме будет 2Д картинка, на любом плеере..

BDInfo :

Disc Title: STREETDANCE_2_3D
Disc Size: 28 883 146 800 bytes
Protection: AACS
BD-Java: No
Extras: 50Hz Content, Blu-ray 3D
BDInfo: 0.5.8
********************
PLAYLIST: 00002.MPLS
********************
<--- BEGIN FORUMS PASTE --->
Total   Video
Title                                                           Codec   Length  Movie Size      Disc Size       Bitrate Bitrate Main Audio Track                          Secondary Audio Track
-----                                                           ------  ------- --------------  --------------  ------- ------- ------------------                        ---------------------
00002.MPLS                                                      AVC     1:24:57 18 608 375 808  28 883 146 800  29,21   22,07   DTS-HD Master 5.1 2638Kbps (48kHz/16-bit)
DISC INFO:
Disc Title:     STREETDANCE_2_3D
Disc Size:      28 883 146 800 bytes
Protection:     AACS
BD-Java:        No
Extras:         50Hz Content, Blu-ray 3D
BDInfo:         0.5.8
PLAYLIST REPORT:
Name:                   00002.MPLS
Length:                 1:24:57.133 (h:m:s.ms)
Size:                   18 608 375 808 bytes
Total Bitrate:          29,21 Mbps
VIDEO:
Codec                   Bitrate             Description
-----                   -------             -----------
MPEG-4 AVC Video        22068 kbps          1080p / 23,976 fps / 16:9 / High Profile 4.1
AUDIO:
Codec                           Language        Bitrate         Description
-----                           --------        -------         -----------
DTS-HD Master Audio             English         2638 kbps       5.1 / 48 kHz / 2638 kbps / 16-bit (DTS Core: 5.1 / 48 kHz / 1509 kbps / 16-bit)
DTS-HD Master Audio             Russian         2505 kbps       5.1 / 48 kHz / 2505 kbps / 16-bit (DTS Core: 5.1 / 48 kHz / 1509 kbps / 16-bit)
Dolby Digital Audio             Russian         192 kbps        2.0 / 48 kHz / 192 kbps
SUBTITLES:
Codec                           Language        Bitrate         Description
-----                           --------        -------         -----------
Presentation Graphics           Russian         19,039 kbps
FILES:
Name            Time In         Length          Size            Total Bitrate
----            -------         ------          ----            -------------
00005.M2TS      0:00:00.000     0:50:54.342     11 000 592 384  28 813
00007.M2TS      0:50:54.342     0:34:02.790     7 607 783 424   29 794
CHAPTERS:
Number          Time In         Length          Avg Video Rate  Max 1-Sec Rate  Max 1-Sec Time  Max 5-Sec Rate  Max 5-Sec Time  Max 10Sec Rate  Max 10Sec Time  Avg Frame Size  Max Frame Size  Max Frame Time
------          -------         ------          --------------  --------------  --------------  --------------  --------------  --------------  --------------  --------------  --------------  --------------
1               0:00:00.000     0:04:54.002     20 967 kbps     36 285 kbps     00:00:38.329    32 917 kbps     00:00:38.246    29 865 kbps     00:00:37.620    109 298 bytes   869 634 bytes   00:03:24.162
2               0:04:54.002     0:05:14.147     21 098 kbps     33 346 kbps     00:04:56.629    28 340 kbps     00:06:08.409    25 693 kbps     00:05:41.257    109 997 bytes   704 564 bytes   00:05:41.507
3               0:10:08.149     0:06:47.865     22 316 kbps     32 295 kbps     00:11:32.066    27 654 kbps     00:11:32.066    25 720 kbps     00:11:41.534    116 346 bytes   718 019 bytes   00:10:19.618
4               0:16:56.015     0:06:18.711     21 846 kbps     36 256 kbps     00:17:55.949    29 281 kbps     00:17:31.258    27 947 kbps     00:17:26.378    113 895 bytes   891 053 bytes   00:18:38.200
5               0:23:14.726     0:07:11.180     22 032 kbps     31 411 kbps     00:27:51.669    25 940 kbps     00:25:14.679    25 111 kbps     00:25:09.799    114 867 bytes   566 809 bytes   00:27:50.919
6               0:30:25.907     0:07:59.312     22 637 kbps     30 390 kbps     00:36:10.418    27 796 kbps     00:32:58.810    27 625 kbps     00:32:57.976    118 019 bytes   540 949 bytes   00:32:34.535
7               0:38:25.219     0:08:12.575     21 739 kbps     29 978 kbps     00:40:23.587    27 180 kbps     00:40:19.583    25 189 kbps     00:44:19.156    113 338 bytes   632 968 bytes   00:46:37.419
8               0:46:37.795     0:11:33.859     22 362 kbps     35 413 kbps     00:51:09.691    30 983 kbps     00:51:05.687    28 254 kbps     00:51:01.475    116 585 bytes   611 654 bytes   00:50:00.247
9               0:58:11.654     0:09:03.251     21 841 kbps     31 589 kbps     00:59:48.293    26 136 kbps     01:04:33.369    24 534 kbps     01:04:33.369    113 867 bytes   472 475 bytes   00:59:47.917
10              1:07:14.905     0:07:45.631     22 282 kbps     29 997 kbps     01:12:30.429    26 652 kbps     01:14:17.369    25 065 kbps     01:12:01.775    116 167 bytes   466 328 bytes   01:09:46.098
11              1:15:00.537     0:05:50.391     22 552 kbps     29 660 kbps     01:19:01.528    27 205 kbps     01:17:46.036    26 289 kbps     01:18:36.753    117 575 bytes   391 062 bytes   01:20:50.929
12              1:20:50.929     0:04:06.204     22 744 kbps     33 754 kbps     01:24:05.749    31 366 kbps     01:24:04.164    29 851 kbps     01:24:04.289    118 598 bytes   566 140 bytes   01:22:20.018
STREAM DIAGNOSTICS:
File            PID             Type            Codec           Language                Seconds                 Bitrate                 Bytes           Packets
----            ---             ----            -----           --------                --------------          --------------          -------------   -----
00005.M2TS      4113 (0x1011)   0x1B            AVC                                     3054,260                21 896                  8 359 477 029   45 474 965
00005.M2TS      4352 (0x1100)   0x86            DTS-HD MA       rus (Russian)           3054,260                2 380                   908 793 588     5 414 537
00005.M2TS      4353 (0x1101)   0x81            AC3             rus (Russian)           3054,260                192                     73 304 064      477 240
00005.M2TS      4354 (0x1102)   0x86            DTS-HD MA       eng (English)           3054,260                2 553                   974 558 384     5 770 512
00005.M2TS      4608 (0x1200)   0x90            PGS             rus (Russian)           3054,260                25                      9 430 901       55 131
00007.M2TS      4113 (0x1011)   0x1B            AVC                                     2042,707                22 327                  5 700 999 694   31 012 443
00007.M2TS      4352 (0x1100)   0x86            DTS-HD MA       rus (Russian)           2042,707                2 692                   687 408 864     4 051 640
00007.M2TS      4353 (0x1101)   0x81            AC3             rus (Russian)           2042,707                192                     49 026 816      319 185
00007.M2TS      4354 (0x1102)   0x86            DTS-HD MA       eng (English)           2042,707                2 765                   705 912 340     4 156 261
00007.M2TS      4608 (0x1200)   0x90            PGS             rus (Russian)           2042,707                11                      2 699 658       15 868
<---- END FORUMS PASTE ---->
********************
PLAYLIST: 00003.MPLS
********************
<--- BEGIN FORUMS PASTE --->
Total   Video
Title                                                           Codec   Length  Movie Size      Disc Size       Bitrate Bitrate Main Audio Track                          Secondary Audio Track
-----                                                           ------  ------- --------------  --------------  ------- ------- ------------------                        ---------------------
00003.MPLS                                                      AVC     1:24:57 18 608 375 808  28 883 146 800  29,21   22,07   DTS-HD Master 5.1 2638Kbps (48kHz/16-bit)
DISC INFO:
Disc Title:     STREETDANCE_2_3D
Disc Size:      28 883 146 800 bytes
Protection:     AACS
BD-Java:        No
Extras:         50Hz Content, Blu-ray 3D
BDInfo:         0.5.8
PLAYLIST REPORT:
Name:                   00003.MPLS
Length:                 1:24:57.133 (h:m:s.ms)
Size:                   18 608 375 808 bytes
Total Bitrate:          29,21 Mbps
VIDEO:
Codec                   Bitrate             Description
-----                   -------             -----------
MPEG-4 AVC Video        22068 kbps          1080p / 23,976 fps / 16:9 / High Profile 4.1
AUDIO:
Codec                           Language        Bitrate         Description
-----                           --------        -------         -----------
DTS-HD Master Audio             English         2638 kbps       5.1 / 48 kHz / 2638 kbps / 16-bit (DTS Core: 5.1 / 48 kHz / 1509 kbps / 16-bit)
DTS-HD Master Audio             Russian         2505 kbps       5.1 / 48 kHz / 2505 kbps / 16-bit (DTS Core: 5.1 / 48 kHz / 1509 kbps / 16-bit)
Dolby Digital Audio             Russian         192 kbps        2.0 / 48 kHz / 192 kbps
SUBTITLES:
Codec                           Language        Bitrate         Description
-----                           --------        -------         -----------
Presentation Graphics           Russian         19,039 kbps
FILES:
Name            Time In         Length          Size            Total Bitrate
----            -------         ------          ----            -------------
00005.M2TS      0:00:00.000     0:50:54.342     11 000 592 384  28 813
00007.M2TS      0:50:54.342     0:34:02.790     7 607 783 424   29 794
CHAPTERS:
Number          Time In         Length          Avg Video Rate  Max 1-Sec Rate  Max 1-Sec Time  Max 5-Sec Rate  Max 5-Sec Time  Max 10Sec Rate  Max 10Sec Time  Avg Frame Size  Max Frame Size  Max Frame Time
------          -------         ------          --------------  --------------  --------------  --------------  --------------  --------------  --------------  --------------  --------------  --------------
1               0:00:00.000     0:04:54.002     20 967 kbps     36 285 kbps     00:00:38.329    32 917 kbps     00:00:38.246    29 865 kbps     00:00:37.620    109 298 bytes   869 634 bytes   00:03:24.162
2               0:04:54.002     0:05:14.147     21 098 kbps     33 346 kbps     00:04:56.629    28 340 kbps     00:06:08.409    25 693 kbps     00:05:41.257    109 997 bytes   704 564 bytes   00:05:41.507
3               0:10:08.149     0:06:47.865     22 316 kbps     32 295 kbps     00:11:32.066    27 654 kbps     00:11:32.066    25 720 kbps     00:11:41.534    116 346 bytes   718 019 bytes   00:10:19.618
4               0:16:56.015     0:06:18.711     21 846 kbps     36 256 kbps     00:17:55.949    29 281 kbps     00:17:31.258    27 947 kbps     00:17:26.378    113 895 bytes   891 053 bytes   00:18:38.200
5               0:23:14.726     0:07:11.180     22 032 kbps     31 411 kbps     00:27:51.669    25 940 kbps     00:25:14.679    25 111 kbps     00:25:09.799    114 867 bytes   566 809 bytes   00:27:50.919
6               0:30:25.907     0:07:59.312     22 637 kbps     30 390 kbps     00:36:10.418    27 796 kbps     00:32:58.810    27 625 kbps     00:32:57.976    118 019 bytes   540 949 bytes   00:32:34.535
7               0:38:25.219     0:08:12.575     21 739 kbps     29 978 kbps     00:40:23.587    27 180 kbps     00:40:19.583    25 189 kbps     00:44:19.156    113 338 bytes   632 968 bytes   00:46:37.419
8               0:46:37.795     0:11:33.859     22 362 kbps     35 413 kbps     00:51:09.691    30 983 kbps     00:51:05.687    28 254 kbps     00:51:01.475    116 585 bytes   611 654 bytes   00:50:00.247
9               0:58:11.654     0:09:03.251     21 841 kbps     31 589 kbps     00:59:48.293    26 136 kbps     01:04:33.369    24 534 kbps     01:04:33.369    113 867 bytes   472 475 bytes   00:59:47.917
10              1:07:14.905     0:07:45.631     22 282 kbps     29 997 kbps     01:12:30.429    26 652 kbps     01:14:17.369    25 065 kbps     01:12:01.775    116 167 bytes   466 328 bytes   01:09:46.098
11              1:15:00.537     0:05:50.391     22 552 kbps     29 660 kbps     01:19:01.528    27 205 kbps     01:17:46.036    26 289 kbps     01:18:36.753    117 575 bytes   391 062 bytes   01:20:50.929
12              1:20:50.929     0:04:06.204     22 744 kbps     33 754 kbps     01:24:05.749    31 366 kbps     01:24:04.164    29 851 kbps     01:24:04.289    118 598 bytes   566 140 bytes   01:22:20.018
STREAM DIAGNOSTICS:
File            PID             Type            Codec           Language                Seconds                 Bitrate                 Bytes           Packets
----            ---             ----            -----           --------                --------------          --------------          -------------   -----
00005.M2TS      4113 (0x1011)   0x1B            AVC                                     3054,260                21 896                  8 359 477 029   45 474 965
00005.M2TS      4352 (0x1100)   0x86            DTS-HD MA       rus (Russian)           3054,260                2 380                   908 793 588     5 414 537
00005.M2TS      4353 (0x1101)   0x81            AC3             rus (Russian)           3054,260                192                     73 304 064      477 240
00005.M2TS      4354 (0x1102)   0x86            DTS-HD MA       eng (English)           3054,260                2 553                   974 558 384     5 770 512
00005.M2TS      4608 (0x1200)   0x90            PGS             rus (Russian)           3054,260                25                      9 430 901       55 131
00007.M2TS      4113 (0x1011)   0x1B            AVC                                     2042,707                22 327                  5 700 999 694   31 012 443
00007.M2TS      4352 (0x1100)   0x86            DTS-HD MA       rus (Russian)           2042,707                2 692                   687 408 864     4 051 640
00007.M2TS      4353 (0x1101)   0x81            AC3             rus (Russian)           2042,707                192                     49 026 816      319 185
00007.M2TS      4354 (0x1102)   0x86            DTS-HD MA       eng (English)           2042,707                2 765                   705 912 340     4 156 261
00007.M2TS      4608 (0x1200)   0x90            PGS             rus (Russian)           2042,707                11                      2 699 658       15 868
<---- END FORUMS PASTE ---->
********************
PLAYLIST: 00004.MPLS
********************
<--- BEGIN FORUMS PASTE --->
Total   Video
Title                                                           Codec   Length  Movie Size      Disc Size       Bitrate Bitrate Main Audio Track                          Secondary Audio Track
-----                                                           ------  ------- --------------  --------------  ------- ------- ------------------                        ---------------------
00004.MPLS                                                      MPEG-2  0:37:50 2 380 449 792   28 883 146 800  8,39    6,20    LPCM 2.0 1536Kbps (48kHz/16-bit)
DISC INFO:
Disc Title:     STREETDANCE_2_3D
Disc Size:      28 883 146 800 bytes
Protection:     AACS
BD-Java:        No
Extras:         50Hz Content, Blu-ray 3D
BDInfo:         0.5.8
PLAYLIST REPORT:
Name:                   00004.MPLS
Length:                 0:37:50.040 (h:m:s.ms)
Size:                   2 380 449 792 bytes
Total Bitrate:          8,39 Mbps
VIDEO:
Codec                   Bitrate             Description
-----                   -------             -----------
MPEG-2 Video            6202 kbps           576i / 25 fps / 16:9
AUDIO:
Codec                           Language        Bitrate         Description
-----                           --------        -------         -----------
LPCM Audio                      Russian         1536 kbps       2.0 / 48 kHz / 1536 kbps / 16-bit
FILES:
Name            Time In         Length          Size            Total Bitrate
----            -------         ------          ----            -------------
00009.M2TS      0:00:00.000     0:37:50.040     2 380 449 792   8 389
CHAPTERS:
Number          Time In         Length          Avg Video Rate  Max 1-Sec Rate  Max 1-Sec Time  Max 5-Sec Rate  Max 5-Sec Time  Max 10Sec Rate  Max 10Sec Time  Avg Frame Size  Max Frame Size  Max Frame Time
------          -------         ------          --------------  --------------  --------------  --------------  --------------  --------------  --------------  --------------  --------------  --------------
1               0:00:00.000     0:37:50.040     6 202 kbps      8 418 kbps      00:29:29.760    7 251 kbps      00:26:56.239    7 115 kbps      00:20:37.920    31 012 bytes    201 006 bytes   00:09:07.240
STREAM DIAGNOSTICS:
File            PID             Type            Codec           Language                Seconds                 Bitrate                 Bytes           Packets
----            ---             ----            -----           --------                --------------          --------------          -------------   -----
00009.M2TS      4113 (0x1011)   0x02            MPEG-2                                  2269,920                6 203                   1 759 953 414   9 598 102
00009.M2TS      4352 (0x1100)   0x80            LPCM            rus (Russian)           2269,920                1 542                   437 659 856     2 724 024
<---- END FORUMS PASTE ---->
********************
PLAYLIST: 00005.MPLS
********************
<--- BEGIN FORUMS PASTE --->
Total   Video
Title                                                           Codec   Length  Movie Size      Disc Size       Bitrate Bitrate Main Audio Track                          Secondary Audio Track
-----                                                           ------  ------- --------------  --------------  ------- ------- ------------------                        ---------------------
00005.MPLS                                                      MPEG-2  0:19:39 1 245 677 568   28 883 146 800  8,45    6,26    LPCM 2.0 1536Kbps (48kHz/16-bit)
DISC INFO:
Disc Title:     STREETDANCE_2_3D
Disc Size:      28 883 146 800 bytes
Protection:     AACS
BD-Java:        No
Extras:         50Hz Content, Blu-ray 3D
BDInfo:         0.5.8
PLAYLIST REPORT:
Name:                   00005.MPLS
Length:                 0:19:39.200 (h:m:s.ms)
Size:                   1 245 677 568 bytes
Total Bitrate:          8,45 Mbps
VIDEO:
Codec                   Bitrate             Description
-----                   -------             -----------
MPEG-2 Video            6262 kbps           576i / 25 fps / 16:9
AUDIO:
Codec                           Language        Bitrate         Description
-----                           --------        -------         -----------
LPCM Audio                      Russian         1536 kbps       2.0 / 48 kHz / 1536 kbps / 16-bit
FILES:
Name            Time In         Length          Size            Total Bitrate
----            -------         ------          ----            -------------
00010.M2TS      0:00:00.000     0:19:39.200     1 245 677 568   8 451
CHAPTERS:
Number          Time In         Length          Avg Video Rate  Max 1-Sec Rate  Max 1-Sec Time  Max 5-Sec Rate  Max 5-Sec Time  Max 10Sec Rate  Max 10Sec Time  Avg Frame Size  Max Frame Size  Max Frame Time
------          -------         ------          --------------  --------------  --------------  --------------  --------------  --------------  --------------  --------------  --------------  --------------
1               0:00:00.000     0:19:39.200     6 262 kbps      8 409 kbps      00:03:02.200    7 192 kbps      00:03:01.120    7 021 kbps      00:00:08.759    31 308 bytes    202 180 bytes   00:13:24.559
STREAM DIAGNOSTICS:
File            PID             Type            Codec           Language                Seconds                 Bitrate                 Bytes           Packets
----            ---             ----            -----           --------                --------------          --------------          -------------   -----
00010.M2TS      4113 (0x1011)   0x02            MPEG-2                                  1179,120                6 262                   922 971 721     5 033 346
00010.M2TS      4352 (0x1100)   0x80            LPCM            rus (Russian)           1179,120                1 543                   227 349 760     1 415 040
<---- END FORUMS PASTE ---->
********************
PLAYLIST: 00000.MPLS
********************
<--- BEGIN FORUMS PASTE --->Код:
                                                                                                                Total   Video
Title                                                           Codec   Length  Movie Size      Disc Size       Bitrate Bitrate Main Audio Track                          Secondary Audio Track
-----                                                           ------  ------- --------------  --------------  ------- ------- ------------------                        ---------------------
00000.MPLS                                                      AVC     0:00:23 27 475 968      28 883 146 800  9,28    8,63    DD AC3 2.0 256Kbps
Код:
DISC INFO:
Disc Title:     STREETDANCE_2_3D
Disc Size:      28 883 146 800 bytes
Protection:     AACS
BD-Java:        No
Extras:         50Hz Content, Blu-ray 3D
BDInfo:         0.5.8
PLAYLIST REPORT:
Name:                   00000.MPLS
Length:                 0:00:23.690 (h:m:s.ms)
Size:                   27 475 968 bytes
Total Bitrate:          9,28 Mbps
VIDEO:
Codec                   Bitrate             Description
-----                   -------             -----------
MPEG-4 AVC Video        8626 kbps           1080p / 23,976 fps / 16:9 / High Profile 4.1
AUDIO:
Codec                           Language        Bitrate         Description
-----                           --------        -------         -----------
Dolby Digital Audio             Russian         256 kbps        2.0 / 48 kHz / 256 kbps / DN -4dB
FILES:
Name            Time In         Length          Size            Total Bitrate
----            -------         ------          ----            -------------
00000.M2TS      0:00:00.000     0:00:07.006     1 603 584       1 831
00001.M2TS      0:00:07.006     0:00:16.683     25 872 384      12 406
CHAPTERS:
Number          Time In         Length          Avg Video Rate  Max 1-Sec Rate  Max 1-Sec Time  Max 5-Sec Rate  Max 5-Sec Time  Max 10Sec Rate  Max 10Sec Time  Avg Frame Size  Max Frame Size  Max Frame Time
------          -------         ------          --------------  --------------  --------------  --------------  --------------  --------------  --------------  --------------  --------------  --------------
1               0:00:00.000     0:00:23.690     8 626 kbps      21 534 kbps     00:00:14.139    13 638 kbps     00:00:07.257    13 383 kbps     00:00:07.173    44 974 bytes    321 699 bytes   00:00:14.514
STREAM DIAGNOSTICS:
File            PID             Type            Codec           Language                Seconds                 Bitrate                 Bytes           Packets
----            ---             ----            -----           --------                --------------          --------------          -------------   -----
00000.M2TS      4113 (0x1011)   0x1B            AVC                                     6,882                   1 720                   1 479 975       8 105
00001.M2TS      4113 (0x1011)   0x1B            AVC                                     16,600                  11 598                  24 065 355      131 020
00001.M2TS      4352 (0x1100)   0x81            AC3             rus (Russian)           16,600                  258                     534 528         3 132
<---- END FORUMS PASTE ---->
Скриншоты:

Время раздачи: 24/7 (до 10 скачавших)

[Цитировать]



Показать сообщения:    

Текущее время: 10-Дек 08:07

Часовой пояс: UTC + 3


Вы не можете начинать темы
Вы не можете отвечать на сообщения
Вы не можете редактировать свои сообщения
Вы не можете удалять свои сообщения
Вы не можете голосовать в опросах
Вы не можете прикреплять файлы к сообщениям
Вы не можете скачивать файлы

!ВНИМАНИЕ!
Сайт не предоставляет электронные версии произведений, а занимается лишь коллекционированием и каталогизацией ссылок, присылаемых и публикуемых на форуме нашими читателями. Если вы являетесь правообладателем какого-либо представленного материала и не желаете, чтобы ссылка на него находилась в нашем каталоге, свяжитесь с нами, и мы незамедлительно удалим ее. Файлы для обмена на трекере предоставлены пользователями сайта, и администрация не несет ответственности за их содержание. Просьба не заливать файлы, защищенные авторскими правами, а также файлы нелегального содержания!