[ Сегодня идет свободное скачивание без начисления Download ]


Статистика раздачи
Нет
 
   
 
Top  
 
 
Кабаре-дуэт Академия / Полная дискография
Жанр: Pop
Аудиокодек: APE (*.ape), FLAC (*.flac)
Тип рипа: image+.cue
Битрейт аудио: lossless
Источник (релизер): Диски из личной коллекции
Наличие сканов в содержимом раздачи: нет
От себя: Пока выложил только 3 альбома, но скоро сделаю все. Пусть лежит как дань былому, все таки хорошее было время. Были люди, которые умели смеяться. И над собой в первую очередь. Сейчас, когда все на сцене так серьезны по отношению к себе, по тем временам больше скучается. ))
Все рипы с оригинальных дисков.

1992 Маленький переворот

Год выпуска диска: 1995
Производитель диска: Россия
Аудио кодек: APE
Тип рипа: image+.cue
Битрейт аудио: lossless
Продолжительность: 45:44
Трэклист:
01. Ни божества, ни смертного, ни твари (А.Цекало - Ю.Ряшенцев) (5:04)
02. Праздник (Маленький переворот) (А.Стражгородский - А.Цекало) (3:28)
03. Калифорния (А.Цекало) (3:55)
04. Хочешь сняться, нужно переспать (Режиссер) (А.Цекало) (4:12)
05. Где-то кто-то (А.Цекало - В.Воскобойников) (2:33)
06. Венеция (А.Константиновский) (2:34)
07. Стихийное бедствие (А.Цекало - Г.Стасенков) (3:04)
08. Господин Искариотов (А.Цекало - Беранже) (3:37)
09. Голубые судомойки (А.Стражгородский - О.Мандельштам) (3:11)
10. Изобретатель (А.Цекало - Д.Кимельфельд) (4:01)
11. Баскетбол-буги (А.Цекало) (2:32)
12. Не смог (А.Цекало) (3:17)
13. Не молчи (И.Евдокимов - А.Чуриков) (4:10)
Доп. информация: Ах, какие песни писал раньше Цекало....
Ах, как пела раньше Лолита...
Хорошо, что сейчас все по-другому.

Отчет EAC

Exact Audio Copy V0.99 prebeta 5 from 4. May 2009
Отчёт EAC об извлечении, выполненном 26. мая 2010, 15:39
Академия / Маленький переворот
Дисковод: TSSTcorpCDDVDW TS-L632N Adapter: 0 ID: 0
Режим чтения : Достоверность
Использование точного потока : Да
Отключение кэша аудио : Да
Использование указателей C2 : Нет
Коррекция смещения при чтении : 6
Способность читать области Lead-in и Lead-out : Нет
Заполнение пропущенных сэмплов тишиной : Да
Удаление блоков с тишиной в начале и конце : Нет
При вычислениях CRC использовались нулевые сэмплы : Да
Интерфейс : Встроенный Win32-интерфейс для Win NT/2000
Выходной формат : Внутренние WAV-операции
Формат сэмплов : 44.100 Гц; 16 бит; стерео
TOC извлечённого CD
Трек | Старт | Длительность | Начальный сектор | Конечный сектор
---------------------------------------------------------------------
1 | 0:00.00 | 5:04.31 | 0 | 22830
2 | 5:04.31 | 3:28.15 | 22831 | 38445
3 | 8:32.46 | 3:55.03 | 38446 | 56073
4 | 12:27.49 | 4:12.63 | 56074 | 75036
5 | 16:40.37 | 2:33.55 | 75037 | 86566
6 | 19:14.17 | 2:34.34 | 86567 | 98150
7 | 21:48.51 | 3:04.60 | 98151 | 112010
8 | 24:53.36 | 3:37.66 | 112011 | 128351
9 | 28:31.27 | 3:11.48 | 128352 | 142724
10 | 31:43.00 | 4:01.52 | 142725 | 160851
11 | 35:44.52 | 2:32.52 | 160852 | 172303
12 | 38:17.29 | 3:17.12 | 172304 | 187090
13 | 41:34.41 | 4:10.06 | 187091 | 205846
Характеристики диапазона извлечения и сообщения об ошибках
Выбранный диапазон
Имя файла C:\Users\user\grush\Академия - Маленький переворот\Академия - Маленький переворот.wav
Пиковый уровень 99.0 %
Качество диапазона 100.0 %
CRC теста 568490EA
CRC копии 568490EA
Копирование... OK
Ошибок не произошло
Конец отчёта

1994 Небальные танцы

Год выпуска диска: 1994
Производитель диска: Россия
Аудио кодек: FLAC
Тип рипа: image+.cue
Битрейт аудио: lossless
Продолжительность: 47:08
Трэклист:
01. Тома (муз. и сл. А.Константиновского) (4:03)
02. Талисман (муз. А.Цекало - сл. Ю.Мориц) (3:30)
03. Аргентинское танго (муз. и сл. А.Цекало) (2:50)
04. Лодка (муз. А.Цекало - сл. У.-Д.Смит) (2:57)
05. Делаем вид (муз. и сл. А.Цекало) (3:26)
06. Покинув сад (муз. А.Цекало - сл. У.-Д.Смит) (3:33)
07. Ой-ой-ой (муз. и сл. А.Цекало) (3:56)
08. Звезда (муз. А.Цекало, сл. Г.Алексеева) (1:26)
09. Misty (муз. Эрл Гарднер) (4:54)
10. Не то, чтоб я тужу (муз. А.Цекало, сл. Г.Гампер) (3:02)
11. Баден-баден (муз. и сл. А.Цекало) (3:47)
12. Постой (муз. и сл. О.Щербакова) (5:30)
13. Танцуй, прохожий (муз. и сл. А.Цекало) (4:08)

Отчёт EAC

Exact Audio Copy V1.0 beta 2 from 29. April 2011
EAC extraction logfile from 23. September 2011, 12:11
Кабаре-дуэт Академия / Небальные танцы
Used drive : TSSTcorpCDDVDW SE-S084F Adapter: 1 ID: 0
Read mode : Secure
Utilize accurate stream : Yes
Defeat audio cache : Yes
Make use of C2 pointers : No
Read offset correction : 6
Overread into Lead-In and Lead-Out : No
Fill up missing offset samples with silence : Yes
Delete leading and trailing silent blocks : No
Null samples used in CRC calculations : Yes
Used interface : Installed external ASPI interface
Used output format : User Defined Encoder
Selected bitrate : 128 kBit/s
Quality : High
Add ID3 tag : No
Command line compressor : C:\Program Files\Exact Audio Copy\Flac\flac.exe
Additional command line options : -V -8 -T "Date=%year%" -T "Genre=%genre%" %source%
TOC of the extracted CD
Track | Start | Length | Start sector | End sector
---------------------------------------------------------
1 | 0:00.30 | 4:04.70 | 30 | 18399
2 | 4:05.25 | 3:35.55 | 18400 | 34579
3 | 7:41.05 | 2:50.40 | 34580 | 47369
4 | 10:31.45 | 2:57.60 | 47370 | 60704
5 | 13:29.30 | 3:25.73 | 60705 | 76152
6 | 16:55.28 | 3:33.02 | 76153 | 92129
7 | 20:28.30 | 3:56.50 | 92130 | 109879
8 | 24:25.05 | 1:26.58 | 109880 | 116387
9 | 25:51.63 | 4:54.35 | 116388 | 138472
10 | 30:46.23 | 3:02.17 | 138473 | 152139
11 | 33:48.40 | 3:47.30 | 152140 | 169194
12 | 37:35.70 | 5:30.03 | 169195 | 193947
13 | 43:05.73 | 4:08.07 | 193948 | 212554
Range status and errors
Selected range
Filename C:\@GREGORY@\Мои раздачи\Кабаре-дуэт Академия - Небальные танцы\Кабаре-дуэт Академия - Небальные танцы.wav
Peak level 99.7 %
Extraction speed 4.0 X
Range quality 100.0 %
Test CRC 3E161BF8
Copy CRC 3E161BF8
Copy OK
No errors occurred
AccurateRip summary
Track 1 accurately ripped (confidence 2) [ABFCE768] (AR v1)
Track 2 accurately ripped (confidence 2) [528A0863] (AR v1)
Track 3 accurately ripped (confidence 2) [4A4FA653] (AR v1)
Track 4 accurately ripped (confidence 2) [4873D748] (AR v1)
Track 5 accurately ripped (confidence 2) [EA96E975] (AR v1)
Track 6 accurately ripped (confidence 2) [BD2C4560] (AR v1)
Track 7 accurately ripped (confidence 2) [4E6B0DC8] (AR v1)
Track 8 accurately ripped (confidence 2) [2EB17BBB] (AR v1)
Track 9 accurately ripped (confidence 2) [5EC85E32] (AR v1)
Track 10 not present in database
Track 11 cannot be verified as accurate (confidence 1) [E2B3624B], AccurateRip returned [0316E640] (AR v2)
Track 12 accurately ripped (confidence 1) [72E95967] (AR v1)
Track 13 accurately ripped (confidence 1) [93A8900D] (AR v1)
11 track(s) accurately ripped
1 track(s) could not be verified as accurate
1 track(s) not present in the AccurateRip database
Some tracks could not be verified as accurate
End of status report
==== Log checksum 432267838E8D9E26B3AE7C11D2AA51C7EE7AB93F9DD31F3E5251CBEBBCACABA9 ====

1995 Хочешь, но молчишь!

Год выпуска диска: 1995
Производитель диска: Россия
Аудио кодек: FLAC
Тип рипа: image+.cue
Битрейт аудио: lossless
Продолжительность: 60:01
Трэклист:
01. Капитан (В.Богатырев - С.Мудров) (5:13)
02. Белые цветы (В.Окороков) (3:54)
03. Баден-Баден (А.Цекало) (3:46)
04. Танцуй, прохожий (А.Цекало) (4:11)
05. Дикая штучка (А.Цекало) (4:48)
06. Я с другого коробля (А.Цекало - неизвестен) (4:16)
07. Хочешь, но молчишь! (А.Цекало) (2:51)
08. Колыбельная (А.Цекало - В.Куприянов) (3:35)
09. Догги (А.Цекало - Л.Милявская) (4:07)
10. Родные (Л.Квинт - О.Клименкова) (3:47)
11. Misty (Э.Гарднер) (4:54)
12. Звезда (А.Цекало - Г.Алексеев) (1:25)
13. Ой-ой-ой (А.Цекало) (3:55)
14. За пивом (А.Столыпин и К.) (3:01)
15. Тома (А.Константиновский) (4:03)
16. Весна (А.Цекало - В.Куприянов) (2:06)

Отчёт EAC

Exact Audio Copy V1.0 beta 2 from 29. April 2011
EAC extraction logfile from 23. September 2011, 12:56
Кабаре-дуэт Академия / Хочешь, но молчишь
Used drive : TSSTcorpCDDVDW SE-S084F Adapter: 1 ID: 0
Read mode : Secure
Utilize accurate stream : Yes
Defeat audio cache : Yes
Make use of C2 pointers : No
Read offset correction : 6
Overread into Lead-In and Lead-Out : No
Fill up missing offset samples with silence : Yes
Delete leading and trailing silent blocks : No
Null samples used in CRC calculations : Yes
Used interface : Installed external ASPI interface
Used output format : User Defined Encoder
Selected bitrate : 128 kBit/s
Quality : High
Add ID3 tag : No
Command line compressor : C:\Program Files\Exact Audio Copy\Flac\flac.exe
Additional command line options : -V -8 -T "Date=%year%" -T "Genre=%genre%" %source%
TOC of the extracted CD
Track | Start | Length | Start sector | End sector
---------------------------------------------------------
1 | 0:00.00 | 5:13.12 | 0 | 23486
2 | 5:13.12 | 3:54.43 | 23487 | 41079
3 | 9:07.55 | 3:46.42 | 41080 | 58071
4 | 12:54.22 | 4:11.48 | 58072 | 76944
5 | 17:05.70 | 4:49.22 | 76945 | 98641
6 | 21:55.17 | 4:16.48 | 98642 | 117889
7 | 26:11.65 | 2:51.45 | 117890 | 130759
8 | 29:03.35 | 3:35.22 | 130760 | 146906
9 | 32:38.57 | 4:07.53 | 146907 | 165484
10 | 36:46.35 | 3:47.65 | 165485 | 182574
11 | 40:34.25 | 4:54.05 | 182575 | 204629
12 | 45:28.30 | 1:25.65 | 204630 | 211069
13 | 46:54.20 | 3:55.70 | 211070 | 228764
14 | 50:50.15 | 3:01.52 | 228765 | 242391
15 | 53:51.67 | 4:03.45 | 242392 | 260661
16 | 57:55.37 | 2:05.73 | 260662 | 270109
Range status and errors
Selected range
Filename C:\@GREGORY@\Мои раздачи\Кабаре-дуэт Академия - Хочешь, но молчишь\Кабаре-дуэт Академия - Хочешь, но молчишь.wav
Peak level 93.6 %
Extraction speed 4.4 X
Range quality 100.0 %
Test CRC 924DB593
Copy CRC 924DB593
Copy OK
No errors occurred
AccurateRip summary
Track 1 accurately ripped (confidence 1) [CC8C2C8B] (AR v1)
Track 2 accurately ripped (confidence 1) [F673550A] (AR v1)
Track 3 accurately ripped (confidence 1) [48EFF59E] (AR v1)
Track 4 accurately ripped (confidence 1) [E2AE76ED] (AR v1)
Track 5 accurately ripped (confidence 1) [BEB0B37E] (AR v1)
Track 6 accurately ripped (confidence 1) [83740333] (AR v1)
Track 7 accurately ripped (confidence 1) [4F32E793] (AR v1)
Track 8 accurately ripped (confidence 1) [A27D1911] (AR v1)
Track 9 accurately ripped (confidence 1) [7380B298] (AR v1)
Track 10 accurately ripped (confidence 1) [F8093FF9] (AR v1)
Track 11 accurately ripped (confidence 1) [47B3753B] (AR v1)
Track 12 accurately ripped (confidence 1) [CC222521] (AR v1)
Track 13 accurately ripped (confidence 1) [61EB43C2] (AR v1)
Track 14 accurately ripped (confidence 1) [5B938A4B] (AR v1)
Track 15 accurately ripped (confidence 1) [5AF3214B] (AR v1)
Track 16 accurately ripped (confidence 1) [F6D44A1A] (AR v1)
All tracks accurately ripped
End of status report
==== Log checksum 13A6B6C947993109D6FEB5622F902097DF62E601715D3118292AA405545F522A ====

1997 Свадьба

Год выпуска диска: 1997
Производитель диска: Россия
Аудио кодек: APE
Тип рипа: image+.cue
Битрейт аудио: lossless
Продолжительность: 60:20
Трэклист:
01. Жених и невеста (3:39)
02. Ты не тот и я не та (3:52)
03. Розовые сны (3:34)
04. Мальчик из джаза (4:15)
05. Фасон (5:10)
06. Эти бледные розы (2:57)
07. Зараза (3:59)
08. Не говори до свидания (4:18)
09. Месяц из тумана (4:27)
10. Дикi гусi (4:29)
11. На ты со мною вы не говорите (2:59)
12. Я обиделась (3:19)
13. Дом на высокой горе (4:26)
14. Не смотря-не смотри (4:40)
15. Что со мной (4:16)

Отчёт EAC

Exact Audio Copy V0.99 prebeta 4 from 23. January 2008
Отчёт EAC об извлечении, выполненном 2. июня 2009, 0:27
Kabare-Dujet Akademija / Svadba
Дисковод: MATSHITAUJDA760 DVD/CDRW Adapter: 1 ID: 0
Режим чтения : Достоверность
Использование точного потока : Да
Отключение кэша аудио : Да
Использование указателей C2 : Нет
Коррекция смещения при чтении : 102
Способность читать области Lead-in и Lead-out : Нет
Заполнение пропущенных сэмплов тишиной : Да
Удаление блоков с тишиной в начале и конце : Нет
При вычислениях CRC использовались нулевые сэмплы : Да
Интерфейс : Встроенный Win32-интерфейс для Win NT/2000
Выходной формат : Внутренние WAV-операции
Формат сэмплов : 44.100 Гц; 16 бит; стерео
TOC извлечённого CD
Трек | Старт | Длительность | Начальный сектор | Конечный сектор
---------------------------------------------------------------------
1 | 0:00.37 | 3:39.38 | 37 | 16499
2 | 3:40.00 | 3:52.45 | 16500 | 33944
3 | 7:32.45 | 3:34.67 | 33945 | 50061
4 | 11:07.37 | 4:15.13 | 50062 | 69199
5 | 15:22.50 | 5:10.12 | 69200 | 92461
6 | 20:32.62 | 2:57.38 | 92462 | 105774
7 | 23:30.25 | 3:59.00 | 105775 | 123699
8 | 27:29.25 | 4:18.50 | 123700 | 143099
9 | 31:48.00 | 4:27.50 | 143100 | 163174
10 | 36:15.50 | 4:29.25 | 163175 | 183374
11 | 40:45.00 | 2:59.50 | 183375 | 196849
12 | 43:44.50 | 3:19.50 | 196850 | 211824
13 | 47:04.25 | 4:26.52 | 211825 | 231826
14 | 51:31.02 | 4:40.23 | 231827 | 252849
15 | 56:11.25 | 4:17.00 | 252850 | 272124
Характеристики диапазона извлечения и сообщения об ошибках
Выбранный диапазон
Имя файла D:\torrents\Kabare-Dujet Akademija - Svadba.wav
Пиковый уровень 100.0 %
Качество диапазона 100.0 %
CRC копии 846D8EAA
Копирование... OK
Ошибок не произошло
Конец отчёта

1998 Отпечатки пальчиков

Год выпуска диска: 1998
Производитель диска: Россия
Аудио кодек: APE
Тип рипа: image+.cue
Битрейт аудио: lossless
Продолжительность: 35:59
Трэклист:
1.На старом кладбище
2.Милый Саша
3.На белой лодочке
4.Татуировочка
5.Три дня свидания
6.А я люблю студентов
7.Соня, Золотая ручка
8.Письмо с Колымы
9.Журавли
10.Отпечатки пальчиков
11.В кабак заехал на стрелу
Доп. информация: Ужасный альбом веселой группы.

Отчёт EAC

Exact Audio Copy V0.99 prebeta 4 from 23. January 2008
Отчёт EAC об извлечении, выполненном 4. июня 2009, 13:17
Кабаре-Дуэт Академия / Отпечатки Пальчиков
Дисковод: MATSHITAUJDA760 DVD/CDRW Adapter: 1 ID: 0
Режим чтения : Достоверность
Использование точного потока : Да
Отключение кэша аудио : Да
Использование указателей C2 : Нет
Коррекция смещения при чтении : 102
Способность читать области Lead-in и Lead-out : Нет
Заполнение пропущенных сэмплов тишиной : Да
Удаление блоков с тишиной в начале и конце : Нет
При вычислениях CRC использовались нулевые сэмплы : Да
Интерфейс : Встроенный Win32-интерфейс для Win NT/2000
Выходной формат : Внутренние WAV-операции
Формат сэмплов : 44.100 Гц; 16 бит; стерео
TOC извлечённого CD
Трек | Старт | Длительность | Начальный сектор | Конечный сектор
---------------------------------------------------------------------
1 | 0:00.01 | 3:28.00 | 1 | 15600
2 | 3:28.01 | 2:39.61 | 15601 | 27586
3 | 6:07.62 | 3:53.37 | 27587 | 45098
4 | 10:01.24 | 2:44.00 | 45099 | 57398
5 | 12:45.24 | 4:14.37 | 57399 | 76485
6 | 16:59.61 | 2:51.00 | 76486 | 89310
7 | 19:50.61 | 3:05.00 | 89311 | 103185
8 | 22:55.61 | 2:42.00 | 103186 | 115335
9 | 25:37.61 | 3:54.01 | 115336 | 132886
10 | 29:31.62 | 2:42.00 | 132887 | 145036
11 | 32:13.62 | 3:47.73 | 145037 | 162134
Характеристики диапазона извлечения и сообщения об ошибках
Выбранный диапазон
Имя файла D:\torrents\Академия - Отпечатки пальчиков\Кабаре-Дуэт Академия - Отпечатки Пальчиков.wav
Пиковый уровень 95.4 %
Качество диапазона 100.0 %
CRC копии E6D28139
Копирование... OK
Ошибок не произошло
Конец отчёта

1999 Ту-ту-ту на-на-на

Год выпуска диска: 1999
Производитель диска: Россия
Аудио кодек: FLAC
Тип рипа: image+.cue
Битрейт аудио: lossless
Продолжительность: 49:20
Трэклист:
01. Ту-ту-ту (3:25)
02. Где ты (4:06)
03. Малиновый пиджак (3:44)
04. Не оставляй меня (3:49)
05. Ловушка-любовь (4:10)
06. Когда я стану старенькой (4:37)
07. Маленький (3:37)
08. Шербурские зонкики (3:06)
09. Москау (4:32)
10. Моя знакомая (3:08)
11. Сонет (3:07)
12. Птицы (4:00)
13. Я выйду замуж за еврея (3:52)

Отчёт EAC

Exact Audio Copy V1.0 beta 2 from 29. April 2011
EAC extraction logfile from 22. September 2011, 2:09
Кабаре-дкэт Академия / Ту-ту-ту На-на-на
Used drive : TSSTcorpCDDVDW SE-S084F Adapter: 1 ID: 0
Read mode : Secure
Utilize accurate stream : Yes
Defeat audio cache : Yes
Make use of C2 pointers : No
Read offset correction : 6
Overread into Lead-In and Lead-Out : No
Fill up missing offset samples with silence : Yes
Delete leading and trailing silent blocks : No
Null samples used in CRC calculations : Yes
Used interface : Installed external ASPI interface
Used output format : User Defined Encoder
Selected bitrate : 128 kBit/s
Quality : High
Add ID3 tag : No
Command line compressor : C:\Program Files\Exact Audio Copy\Flac\flac.exe
Additional command line options : -V -8 -T "Date=%year%" -T "Genre=%genre%" %source%
TOC of the extracted CD
Track | Start | Length | Start sector | End sector
---------------------------------------------------------
1 | 0:00.00 | 3:25.40 | 0 | 15414
2 | 3:25.40 | 4:06.35 | 15415 | 33899
3 | 7:32.00 | 3:44.50 | 33900 | 50749
4 | 11:16.50 | 3:49.42 | 50750 | 67966
5 | 15:06.17 | 4:10.15 | 67967 | 86731
6 | 19:16.32 | 4:37.28 | 86732 | 107534
7 | 23:53.60 | 3:37.07 | 107535 | 123816
8 | 27:30.67 | 3:06.15 | 123817 | 137781
9 | 30:37.07 | 4:32.50 | 137782 | 158231
10 | 35:09.57 | 3:08.65 | 158232 | 172396
11 | 38:18.47 | 3:07.33 | 172397 | 186454
12 | 41:26.05 | 4:00.35 | 186455 | 204489
13 | 45:26.40 | 3:52.65 | 204490 | 221954
Range status and errors
Selected range
Filename C:\@GREGORY@\Мои раздачи\Кабаре-дуэт Академия - Ту-ту-ту На-на-на\Кабаре-дуэт Академия - Ту-ту-ту На-на-на.wav
Peak level 100.0 %
Extraction speed 3.8 X
Range quality 99.9 %
Test CRC 431ED439
Copy CRC 431ED439
Copy OK
No errors occurred
AccurateRip summary
Track 1 accurately ripped (confidence 3) [40A5D24C] (AR v1)
Track 2 accurately ripped (confidence 3) [61E52C62] (AR v1)
Track 3 accurately ripped (confidence 3) [35A6B362] (AR v1)
Track 4 accurately ripped (confidence 3) [8A77304E] (AR v1)
Track 5 accurately ripped (confidence 3) [6143C793] (AR v1)
Track 6 accurately ripped (confidence 3) [0DA5768E] (AR v1)
Track 7 accurately ripped (confidence 3) [DB64E9F5] (AR v1)
Track 8 accurately ripped (confidence 3) [6EF622EF] (AR v1)
Track 9 accurately ripped (confidence 3) [6108BFF3] (AR v1)
Track 10 accurately ripped (confidence 3) [8B91A34E] (AR v1)
Track 11 accurately ripped (confidence 3) [BFD5A732] (AR v1)
Track 12 accurately ripped (confidence 3) [350F27DC] (AR v1)
Track 13 accurately ripped (confidence 3) [B648B439] (AR v1)
All tracks accurately ripped
End of status report
==== Log checksum 37D9C680ACC7676A1A419C71993A364DEA133D8B4946CD6FED8BA46186DD0618 ====

[Цитировать]



Показать сообщения:    

Текущее время: 05-Дек 01:31

Часовой пояс: UTC + 3


Вы не можете начинать темы
Вы не можете отвечать на сообщения
Вы не можете редактировать свои сообщения
Вы не можете удалять свои сообщения
Вы не можете голосовать в опросах
Вы не можете прикреплять файлы к сообщениям
Вы не можете скачивать файлы

!ВНИМАНИЕ!
Сайт не предоставляет электронные версии произведений, а занимается лишь коллекционированием и каталогизацией ссылок, присылаемых и публикуемых на форуме нашими читателями. Если вы являетесь правообладателем какого-либо представленного материала и не желаете, чтобы ссылка на него находилась в нашем каталоге, свяжитесь с нами, и мы незамедлительно удалим ее. Файлы для обмена на трекере предоставлены пользователями сайта, и администрация не несет ответственности за их содержание. Просьба не заливать файлы, защищенные авторскими правами, а также файлы нелегального содержания!