[ Сегодня идет свободное скачивание без начисления Download ]


Статистика раздачи
Нет
 
   
 
Top  
 
 
Руслан Алехно - Дискография (2 CD)--
Жанр: Pop
Страна-производитель дисков: Россия
Год издания дисков: 2005-2008
Аудио кодек: FLAC (*.flac)
Тип рипа: image+.cue
Битрейт аудио: lossless
Источник (релизер): Диски из личной коллекции
Наличие сканов в содержимом раздачи: Да (600 dpi, JPG)

2005 Рано или Поздно

Рано или Поздно
-
-Страна-производитель диска: Россия
Год издания диска: 2005
Издатель (лейбл): МОНОЛИТ
Номер по каталогу: МТ-10879-187-1
Аудио кодек: FLAC (*.flac)
Тип рипа: image+.cue
Битрейт аудио: lossless
Продолжительность: 44:25
--Треклист:
01. Необыкновенная
02. Рано или поздно
03. Милая моя
04. Чужая
05. Плохая девчонка
06. Белорусское полесье
07. Москва
08. Облако
09. Неуловимый Джо
10. Дом родной (с А. Гоманом)
11. Две сестры - Беларусь и Россия (с А. Гоманом)
12. Да здравствует сцена!

Лог создания рипа

Exact Audio Copy V0.99 prebeta 5 from 4. May 2009
EAC extraction logfile from 10. September 2010, 20:28
Руслан Алехно / Рано или поздно
Used drive : PIONEER DVD-RW DVR-212 Adapter: 8 ID: 0
Read mode : SecureUtilize accurate stream : YesDefeat audio cache : YesMake use of C2 pointers : No
Read offset correction : 48Overread into Lead-In and Lead-Out : NoFill up missing offset samples with silence : YesDelete leading and trailing silent blocks : NoNull samples used in CRC calculations : YesUsed interface : Installed external ASPI interface
Used output format : Internal WAV RoutinesSample format : 44.100 Hz; 16 Bit; Stereo
TOC of the extracted CD
Track | Start | Length | Start sector | End sector --------------------------------------------------------- 1 | 0:00.00 | 3:49.12 | 0 | 17186 2 | 3:49.12 | 3:35.18 | 17187 | 33329 3 | 7:24.30 | 3:36.15 | 33330 | 49544 4 | 11:00.45 | 3:50.25 | 49545 | 66819 5 | 14:50.70 | 3:35.67 | 66820 | 83011 6 | 18:26.62 | 3:18.57 | 83012 | 97918 7 | 21:45.44 | 3:45.29 | 97919 | 114822 8 | 25:30.73 | 4:45.05 | 114823 | 136202 9 | 30:16.03 | 2:56.07 | 136203 | 149409 10 | 33:12.10 | 3:52.48 | 149410 | 166857 11 | 37:04.58 | 4:10.07 | 166858 | 185614 12 | 41:14.65 | 3:10.25 | 185615 | 199889
Range status and errors
Selected range
Filename J:\MP3\Руслан Алехно (FLAC)\2005 Рано или поздно\Руслан Алехно - Рано или поздно.wav
Peak level 98.8 % Range quality 99.9 % Test CRC 428CB0D2 Copy CRC 428CB0D2 Copy OK
No errors occurred
AccurateRip summary
Track 1 not present in databaseTrack 2 not present in databaseTrack 3 not present in databaseTrack 4 not present in databaseTrack 5 not present in databaseTrack 6 not present in databaseTrack 7 not present in databaseTrack 8 not present in databaseTrack 9 not present in databaseTrack 10 not present in databaseTrack 11 not present in databaseTrack 12 not present in database
None of the tracks are present in the AccurateRip database
End of status report

Скриншот спектра частот

2008 Hasta La Vista

Hasta La Vista
-
-Страна-производитель диска: Россия
Год издания диска: 2008
Издатель (лейбл): НИКИТИН
Номер по каталогу: ТФН-CD 527/08
Аудио кодек: FLAC (*.flac)
Тип рипа: image+.cue
Битрейт аудио: lossless
Продолжительность: 51:07
--Треклист:
01. Hasta La Vista (Russian Version)
02. Рано или поздно
03. Если рядом я и ты
04. Падаем и взлетаем
05. Плохая девчонка
06. Лебеди
07. Милая моя
08. Бегущая по волнам
09. Чужая
10. Золотая моя
11. Облако
12. Мроя
13. Жемчужинка (с А. Гоманом и А. Борхуу)
14. Hasta La Vista (Eurovision Version)

Лог создания рипа

Exact Audio Copy V0.99 prebeta 5 from 4. May 2009
EAC extraction logfile from 9. September 2010, 2:55
Руслан Алехно / Hasta La Vista
Used drive : PIONEER DVD-RW DVR-212 Adapter: 8 ID: 0
Read mode : SecureUtilize accurate stream : YesDefeat audio cache : YesMake use of C2 pointers : No
Read offset correction : 48Overread into Lead-In and Lead-Out : NoFill up missing offset samples with silence : YesDelete leading and trailing silent blocks : NoNull samples used in CRC calculations : YesUsed interface : Installed external ASPI interface
Used output format : Internal WAV RoutinesSample format : 44.100 Hz; 16 Bit; Stereo
TOC of the extracted CD
Track | Start | Length | Start sector | End sector --------------------------------------------------------- 1 | 0:00.00 | 3:06.65 | 0 | 14014 2 | 3:06.65 | 3:37.46 | 14015 | 30335 3 | 6:44.36 | 3:21.46 | 30336 | 45456 4 | 10:06.07 | 3:32.04 | 45457 | 61360 5 | 13:38.11 | 3:38.42 | 61361 | 77752 6 | 17:16.53 | 3:29.07 | 77753 | 93434 7 | 20:45.60 | 3:36.22 | 93435 | 109656 8 | 24:22.07 | 3:31.07 | 109657 | 125488 9 | 27:53.14 | 3:52.06 | 125489 | 142894 10 | 31:45.20 | 3:34.44 | 142895 | 158988 11 | 35:19.64 | 4:47.07 | 158989 | 180520 12 | 40:06.71 | 3:48.64 | 180521 | 197684 13 | 43:55.60 | 4:10.71 | 197685 | 216505 14 | 48:06.56 | 2:59.64 | 216506 | 229994
Range status and errors
Selected range
Filename J:\MP3\Руслан Алехно (FLAC)\2008 Hasta La Vista\Руслан Алехно - Hasta La Vista.wav
Peak level 100.0 % Range quality 99.9 % Test CRC 63A477C2 Copy CRC 63A477C2 Copy OK
No errors occurred
AccurateRip summary
Track 1 not present in databaseTrack 2 not present in databaseTrack 3 not present in databaseTrack 4 not present in databaseTrack 5 not present in databaseTrack 6 not present in databaseTrack 7 not present in databaseTrack 8 not present in databaseTrack 9 not present in databaseTrack 10 not present in databaseTrack 11 not present in databaseTrack 12 not present in databaseTrack 13 not present in databaseTrack 14 not present in database
None of the tracks are present in the AccurateRip database
End of status report

Скриншот спектра частот

Зарелизено на rutracker.org

[Цитировать]



Показать сообщения:    

Текущее время: 06-Дек 21:00

Часовой пояс: UTC + 3


Вы не можете начинать темы
Вы не можете отвечать на сообщения
Вы не можете редактировать свои сообщения
Вы не можете удалять свои сообщения
Вы не можете голосовать в опросах
Вы не можете прикреплять файлы к сообщениям
Вы не можете скачивать файлы

!ВНИМАНИЕ!
Сайт не предоставляет электронные версии произведений, а занимается лишь коллекционированием и каталогизацией ссылок, присылаемых и публикуемых на форуме нашими читателями. Если вы являетесь правообладателем какого-либо представленного материала и не желаете, чтобы ссылка на него находилась в нашем каталоге, свяжитесь с нами, и мы незамедлительно удалим ее. Файлы для обмена на трекере предоставлены пользователями сайта, и администрация не несет ответственности за их содержание. Просьба не заливать файлы, защищенные авторскими правами, а также файлы нелегального содержания!