[ Сегодня идет свободное скачивание без начисления Download ]


Статистика раздачи
Скачал: [ 1 ]
 
   
 
Top  
 
 
Ирина Аллегрова - Дискография (11 CD)
Выкладываю только для ознакомления
Страна: Россия
Жанр: Pop
Годы выпуска: 1994-2007
Формат: APE (image + .cue), log, covers
Битрейт аудио: lossless
Все диски лицензионные, проверены Tau Analyzer.
В раздаче отсканированные обложки дисков с разрешением 600 т/д
Подробнее ознакомиться с творчеством певицы можно на официальном сайте Ирины Аллегровойздесь

1992 Ирина Аллегрова CD «Странник мой» - Альбом разыскивается

Альбом разыскивается

1994 Ирина Аллегрова CD «Угонщица»

Трэклист:
01. Угонщица [0:04:04.14]
02. Сквозняки [0:04:30.12]
03. Сама [0:03:52.22]
04. Над пропастью во ржи [0:04:44.35]
05. Ключи [0:03:38.67]
06. Войди в меня [0:04:45.27]
07. Ты мне нужен [0:03:57.69]
08. Золото любви [0:03:55.72]
09. Нежданный гость [0:03:10.27]
10. Я тебя отвоюю [0:05:40.05]
11. Безответная любовь [0:04:14.34]
12. Привет, Андрей [0:04:01.65]
Общее время звучания 50 : 36

Log

Exact Audio Copy V0.99 prebeta 4 from 23. January 2008
Отчёт EAC об извлечении, выполненном 8. апреля 2008, 12:44
Ирина Аллегрова / Угонщица
Дисковод: _NEC CDRW/DVD CB1100B Adapter: 1 ID: 0
Режим чтения : Достоверность
Использование точного потока : Да
Отключение кэша аудио : Да
Использование указателей C2 : Нет
Коррекция смещения при чтении : 6
Способность читать области Lead-in и Lead-out : Нет
Заполнение пропущенных сэмплов тишиной : Да
Удаление блоков с тишиной в начале и конце : Нет
При вычислениях CRC использовались нулевые сэмплы : Нет
Интерфейс : Встроенный Win32-интерфейс для Win NT/2000
Выходной формат : Внутренние WAV-операции
Формат сэмплов : 44.100 Гц; 16 бит; стерео
TOC извлечённого CD
Трек | Старт | Длительность | Начальный сектор | Конечный сектор
---------------------------------------------------------------------
1 | 0:00.00 | 4:04.14 | 0 | 18313
2 | 4:04.14 | 4:30.12 | 18314 | 38575
3 | 8:34.26 | 3:52.22 | 38576 | 55997
4 | 12:26.48 | 4:44.35 | 55998 | 77332
5 | 17:11.08 | 3:38.67 | 77333 | 93749
6 | 20:50.00 | 4:45.27 | 93750 | 115151
7 | 25:35.27 | 3:57.69 | 115152 | 132995
8 | 29:33.21 | 3:55.72 | 132996 | 150692
9 | 33:29.18 | 3:10.27 | 150693 | 164969
10 | 36:39.45 | 5:40.05 | 164970 | 190474
11 | 42:19.50 | 4:14.34 | 190475 | 209558
12 | 46:34.09 | 4:01.65 | 209559 | 227698
Характеристики диапазона извлечения и сообщения об ошибках
Выбранный диапазон
Имя файла O:\CD\1994 Ирина Аллегрова - Угонщица.wav
Пиковый уровень 100.0 %
Качество диапазона 100.0 %
CRC копии FFF902A7
Копирование... OK
Ошибок не произошло
AccurateRip: сводка
Трек 1 нет в базе данных
Трек 2 нет в базе данных
Трек 3 нет в базе данных
Трек 4 нет в базе данных
Трек 5 нет в базе данных
Трек 6 нет в базе данных
Трек 7 нет в базе данных
Трек 8 нет в базе данных
Трек 9 нет в базе данных
Трек 10 нет в базе данных
Трек 11 нет в базе данных
Трек 12 нет в базе данных
Ни одного трека нет в базе AccurateRip
Конец отчёта

Отчет Tau Analyzer

Нажми на картинку для увеличения:
Tracks

Spectrum Track 1

Spectrum Track 2

Spectrum Track 3

Spectrum Track 4

Spectrum Track 5

Spectrum Track 6

Spectrum Track 7

Spectrum Track 8

Spectrum Track 9

Spectrum Track 10

Spectrum Track 11

Spectrum Track 12

1995 Ирина Аллегрова CD «Суженый мой»

Трэклист:
01. Не улетай [0:04:12.42]
02. Мой ласковый и нежный зверь [0:04:11.58]
03. Верьте в любовь девчонки [0:02:41.55]
04. Игрушка [0:03:51.67]
05. Свечка [0:04:02.50]
06. Как я соскучилась [0:04:17.30]
07. Суженый мой [0:03:33.55]
08. Бабник [0:03:42.20]
09. Не было печали [0:04:58.40]
10. Глупый мальчик [0:03:49.33]
11. Странник [0:03:10.17]
12. Фотография [0:03:29.58]
13. Младший лейтенант [0:03:48.72]
14. Транзит [0:04:09.03]
Общее время звучания 54 : 00

Log

Exact Audio Copy V0.99 prebeta 4 from 23. January 2008
Отчёт EAC об извлечении, выполненном 8. апреля 2008, 15:40
Ирина Аллегрова / Суженый мой...
Дисковод: _NEC CDRW/DVD CB1100B Adapter: 1 ID: 0
Режим чтения : Достоверность
Использование точного потока : Да
Отключение кэша аудио : Да
Использование указателей C2 : Нет
Коррекция смещения при чтении : 6
Способность читать области Lead-in и Lead-out : Нет
Заполнение пропущенных сэмплов тишиной : Да
Удаление блоков с тишиной в начале и конце : Нет
При вычислениях CRC использовались нулевые сэмплы : Нет
Интерфейс : Встроенный Win32-интерфейс для Win NT/2000
Выходной формат : Внутренние WAV-операции
Формат сэмплов : 44.100 Гц; 16 бит; стерео
TOC извлечённого CD
Трек | Старт | Длительность | Начальный сектор | Конечный сектор
---------------------------------------------------------------------
1 | 0:00.00 | 4:12.42 | 0 | 18941
2 | 4:12.42 | 4:11.58 | 18942 | 37824
3 | 8:24.25 | 2:41.55 | 37825 | 49954
4 | 11:06.05 | 3:51.67 | 49955 | 67346
5 | 14:57.72 | 4:02.50 | 67347 | 85546
6 | 19:00.47 | 4:17.30 | 85547 | 104851
7 | 23:18.02 | 3:33.55 | 104852 | 120881
8 | 26:51.57 | 3:42.20 | 120882 | 137551
9 | 30:34.02 | 4:58.40 | 137552 | 159941
10 | 35:32.42 | 3:49.33 | 159942 | 177149
11 | 39:22.00 | 3:10.17 | 177150 | 191416
12 | 42:32.17 | 3:29.58 | 191417 | 207149
13 | 46:02.00 | 3:48.72 | 207150 | 224321
14 | 49:50.72 | 4:09.03 | 224322 | 242999
Характеристики диапазона извлечения и сообщения об ошибках
Выбранный диапазон
Имя файла O:\CD\1995 Ирина Аллегрова - Суженый мой....wav
Пиковый уровень 86.3 %
Качество диапазона 100.0 %
CRC копии A797CD8F
Копирование... OK
Ошибок не произошло
AccurateRip: сводка
Трек 1 нет в базе данных
Трек 2 нет в базе данных
Трек 3 нет в базе данных
Трек 4 нет в базе данных
Трек 5 нет в базе данных
Трек 6 нет в базе данных
Трек 7 нет в базе данных
Трек 8 нет в базе данных
Трек 9 нет в базе данных
Трек 10 нет в базе данных
Трек 11 нет в базе данных
Трек 12 нет в базе данных
Трек 13 нет в базе данных
Трек 14 нет в базе данных
Ни одного трека нет в базе AccurateRip
Конец отчёта

Отчет Tau Analyzer

Нажми на картинку для увеличения:
Tracks

Spectrum Track 1

Spectrum Track 2

Spectrum Track 3

Spectrum Track 4

Spectrum Track 5

Spectrum Track 6

Spectrum Track 7

Spectrum Track 8

Spectrum Track 9

Spectrum Track 10

Spectrum Track 11

Spectrum Track 12

Spectrum Track 13

Spectrum Track 14

1996 Ирина Аллегрова CD «Я тучи разведу руками»

Трэклист:
01. Я тучи разведу руками [0:04:22.00]
02. Целуй меня [0:03:32.62]
03. Ладони [0:03:49.70]
04. Любовница [0:04:07.05]
05. Занавес [0:04:05.33]
06. Медовый месяц [0:03:33.05]
07. Ну и пусть [0:03:44.07]
08. Девочка по имени "Хочу" [0:03:54.55]
09. Именины черствые [0:03:40.38]
10. Вчера [0:03:36.45]
11. Свадебные цветы [0:03:49.12]
12. Ожидание [0:03:37.18]
13. Любишь или нет [0:03:39.55]
14. Исповедь [0:03:53.45]
Общее время звучания – 53 : 26

Log

Exact Audio Copy V0.99 prebeta 3 from 28. July 2007
Отчёт EAC об извлечении, выполненном 1. февраля 2008, 22:41
Ирина Аллегрова / Я тучи разведу руками
Дисковод: Optiarc DVD RW AD-7173A Adapter: 1 ID: 0
Режим чтения : Достоверность
Использование точного потока : Да
Отключение кэша аудио : Да
Использование указателей C2 : Нет
Коррекция смещения при чтении : 48
Способность читать области Lead-in и Lead-out : Нет
Заполнение пропущенных сэмплов тишиной : Да
Удаление блоков с тишиной в начале и конце : Нет
При вычислениях CRC использовались нулевые сэмплы : Нет
Интерфейс : Встроенный Win32-интерфейс для Win NT/2000
Выходной формат : Внутренние WAV-операции
Формат сэмплов : 44.100 Гц; 16 бит; стерео
TOC извлечённого CD
Трек | Старт | Длительность | Начальный сектор | Конечный сектор
---------------------------------------------------------------------
1 | 0:00.00 | 4:22.00 | 0 | 19649
2 | 4:22.00 | 3:32.62 | 19650 | 35611
3 | 7:54.62 | 3:49.70 | 35612 | 52856
4 | 11:44.57 | 4:07.05 | 52857 | 71386
5 | 15:51.62 | 4:05.33 | 71387 | 89794
6 | 19:57.20 | 3:33.05 | 89795 | 105774
7 | 23:30.25 | 3:44.07 | 105775 | 122581
8 | 27:14.32 | 3:54.55 | 122582 | 140186
9 | 31:09.12 | 3:40.38 | 140187 | 156724
10 | 34:49.50 | 3:36.45 | 156725 | 172969
11 | 38:26.20 | 3:49.12 | 172970 | 190156
12 | 42:15.32 | 3:37.18 | 190157 | 206449
13 | 45:52.50 | 3:39.55 | 206450 | 222929
14 | 49:32.30 | 3:53.45 | 222930 | 240449
Характеристики диапазона извлечения и сообщения об ошибках
Выбранный диапазон
Имя файла C:\CD\Ирина Аллегрова - Я тучи разведу руками.wav
Пиковый уровень 100.0 %
Качество диапазона 99.9 %
CRC копии 01C69FFB
Копирование... OK
Ошибок не произошло
AccurateRip: сводка
Трек 1 нет в базе данных
Трек 2 нет в базе данных
Трек 3 нет в базе данных
Трек 4 нет в базе данных
Трек 5 нет в базе данных
Трек 6 нет в базе данных
Трек 7 нет в базе данных
Трек 8 нет в базе данных
Трек 9 нет в базе данных
Трек 10 нет в базе данных
Трек 11 нет в базе данных
Трек 12 нет в базе данных
Трек 13 нет в базе данных
Трек 14 нет в базе данных
Ни одного трека нет в базе AccurateRip
Конец отчёта

Отчет Tau Analyzer

Нажми на картинку для увеличения:
Tracks

Spectrum Track 1

Spectrum Track 2

Spectrum Track 3

Spectrum Track 4

Spectrum Track 5

Spectrum Track 6

Spectrum Track 7

Spectrum Track 8

Spectrum Track 9

Spectrum Track 10

Spectrum Track 11

Spectrum Track 12

Spectrum Track 13

Spectrum Track 14

1997 Ирина Аллегрова CD «Императрица» - Альбом разыскивается

Альбом разыскивается
Трэклист:
01. Императрица [0:04:18.60]
02. Подари эту ночь [0:04:48.20]
03. Измена [0:04:13.03]
04. Отпусти меня [0:05:43.60]
05. Последнее письмо [0:04:10.60]
06. Балерина [0:03:21.45]
07. Охотник [0:04:27.10]
08. Подружка [0:03:35.02]
09. Последнее танго в Париже [0:06:15.43]
10. Мулен-Руж [0:04:47.37]
11. Купи девчоночку [0:04:42.00]
Общее время звучания –

Log

Отчет Tau Analyzer

1998 Ирина Аллегрова CD «Незаконченный роман»

Трэклист:
01. Бабы-стервы [0:03:26.00]
02. Остров тысячи поцелуев [0:03:51.37]
03. Её высочество [0:04:07.25]
04. Весна в раю [0:04:14.35]
05. Монолог [0:04:46.40]
06. Люблю мужчин [0:03:22.63]
07. Капитан [0:03:40.37]
08. Я улыбнусь тебе сквозь слёзы [0:04:40.13]
09. Повелитель удовольствий [0:03:59.00]
10. Не опоздай [0:04:19.65]
11. Ночные лилии [0:04:08.47]
12. Сударь [0:03:25.25]
13. Улыбка папы [0:03:37.38]
14. Незаконченный роман (дуэт с И.Крутым) [0:04:47.25]
Общее время звучания – 56 : 27

Log

Exact Audio Copy V0.99 prebeta 4 from 23. January 2008
Отчёт EAC об извлечении, выполненном 9. апреля 2008, 9:44
Ирина Аллегрова / Незаконченный роман
Дисковод: _NEC CDRW/DVD CB1100B Adapter: 1 ID: 0
Режим чтения : Достоверность
Использование точного потока : Да
Отключение кэша аудио : Да
Использование указателей C2 : Нет
Коррекция смещения при чтении : 6
Способность читать области Lead-in и Lead-out : Нет
Заполнение пропущенных сэмплов тишиной : Да
Удаление блоков с тишиной в начале и конце : Нет
При вычислениях CRC использовались нулевые сэмплы : Нет
Интерфейс : Встроенный Win32-интерфейс для Win NT/2000
Выходной формат : Внутренние WAV-операции
Формат сэмплов : 44.100 Гц; 16 бит; стерео
TOC извлечённого CD
Трек | Старт | Длительность | Начальный сектор | Конечный сектор
---------------------------------------------------------------------
1 | 0:00.25 | 3:26.00 | 25 | 15474
2 | 3:26.25 | 3:51.37 | 15475 | 32836
3 | 7:17.62 | 4:07.25 | 32837 | 51386
4 | 11:25.12 | 4:14.35 | 51387 | 70471
5 | 15:39.47 | 4:46.40 | 70472 | 91961
6 | 20:26.12 | 3:22.63 | 91962 | 107174
7 | 23:49.00 | 3:40.37 | 107175 | 123711
8 | 27:29.37 | 4:40.13 | 123712 | 144724
9 | 32:09.50 | 3:59.00 | 144725 | 162649
10 | 36:08.50 | 4:19.65 | 162650 | 182139
11 | 40:28.40 | 4:08.47 | 182140 | 200786
12 | 44:37.12 | 3:25.25 | 200787 | 216186
13 | 48:02.37 | 3:37.38 | 216187 | 232499
14 | 51:40.00 | 4:47.25 | 232500 | 254049
Характеристики диапазона извлечения и сообщения об ошибках
Выбранный диапазон
Имя файла O:\CD\1998 Ирина Аллегрова - Незаконченный роман.wav
Пиковый уровень 100.0 %
Качество диапазона 100.0 %
CRC копии 0B454F3A
Копирование... OK
Ошибок не произошло
AccurateRip: сводка
Трек 1 нет в базе данных
Трек 2 нет в базе данных
Трек 3 нет в базе данных
Трек 4 нет в базе данных
Трек 5 нет в базе данных
Трек 6 нет в базе данных
Трек 7 нет в базе данных
Трек 8 нет в базе данных
Трек 9 нет в базе данных
Трек 10 нет в базе данных
Трек 11 нет в базе данных
Трек 12 нет в базе данных
Трек 13 нет в базе данных
Трек 14 нет в базе данных
Ни одного трека нет в базе AccurateRip
Конец отчёта

Отчет Tau Analyzer

Нажми на картинку для увеличения:
Tracks

Spectrum Track 1

Spectrum Track 2

Spectrum Track 3

Spectrum Track 4

Spectrum Track 5

Spectrum Track 6

Spectrum Track 7

Spectrum Track 8

Spectrum Track 9

Spectrum Track 10

Spectrum Track 11

Spectrum Track 12

Spectrum Track 13

Spectrum Track 14

1999 Ирина Аллегрова CD «Театр»

Трэклист:
01. Театр [0:05:39.00]
02. Безобразница - Луна [0:04:08.00]
03. Качели [0:04:32.00]
04. Дон Жуан [0:03:41.00]
05. Не первый... [0:03:31.00]
06. Двадцать раз [0:04:02.00]
07. Обними меня [0:04:00.00]
08. Девять с половиной недель [0:04:21.00]
09. Итальянец [0:04:08.00]
10. Ой, не надо [0:04:12.00]
11. Праздник прощания [0:04:54.00]
12. Одиночество моё... [0:04:29.00]
13. Гарем [0:03:40.00]
14. Шалая [0:02:56.00]
15. Смешная история [0:04:04.00]
Общее время звучания – 62 : 17

Log

Exact Audio Copy V0.99 prebeta 4 from 23. January 2008
Отчёт EAC об извлечении, выполненном 18. апреля 2008, 10:02
Ирина Аллегрова / Театр...
Дисковод: _NEC CDRW/DVD CB1100B Adapter: 1 ID: 0
Режим чтения : Достоверность
Использование точного потока : Да
Отключение кэша аудио : Да
Использование указателей C2 : Нет
Коррекция смещения при чтении : 6
Способность читать области Lead-in и Lead-out : Нет
Заполнение пропущенных сэмплов тишиной : Да
Удаление блоков с тишиной в начале и конце : Нет
При вычислениях CRC использовались нулевые сэмплы : Нет
Интерфейс : Встроенный Win32-интерфейс для Win NT/2000
Выходной формат : Внутренние WAV-операции
Формат сэмплов : 44.100 Гц; 16 бит; стерео
TOC извлечённого CD
Трек | Старт | Длительность | Начальный сектор | Конечный сектор
---------------------------------------------------------------------
1 | 0:00.00 | 5:39.00 | 0 | 25424
2 | 5:39.00 | 4:08.00 | 25425 | 44024
3 | 9:47.00 | 4:32.00 | 44025 | 64424
4 | 14:19.00 | 3:41.00 | 64425 | 80999
5 | 18:00.00 | 3:31.00 | 81000 | 96824
6 | 21:31.00 | 4:02.00 | 96825 | 114974
7 | 25:33.00 | 4:00.00 | 114975 | 132974
8 | 29:33.00 | 4:21.00 | 132975 | 152549
9 | 33:54.00 | 4:08.00 | 152550 | 171149
10 | 38:02.00 | 4:12.00 | 171150 | 190049
11 | 42:14.00 | 4:54.00 | 190050 | 212099
12 | 47:08.00 | 4:29.00 | 212100 | 232274
13 | 51:37.00 | 3:40.00 | 232275 | 248774
14 | 55:17.00 | 2:56.00 | 248775 | 261974
15 | 58:13.00 | 4:04.00 | 261975 | 280274
Характеристики диапазона извлечения и сообщения об ошибках
Выбранный диапазон
Имя файла O:\CD\1999 Ирина Аллегрова - Театр....wav
Пиковый уровень 100.0 %
Качество диапазона 100.0 %
CRC копии 33C45FF0
Копирование... OK
Ошибок не произошло
AccurateRip: сводка
Трек 1 нет в базе данных
Трек 2 нет в базе данных
Трек 3 нет в базе данных
Трек 4 нет в базе данных
Трек 5 нет в базе данных
Трек 6 нет в базе данных
Трек 7 нет в базе данных
Трек 8 нет в базе данных
Трек 9 нет в базе данных
Трек 10 нет в базе данных
Трек 11 нет в базе данных
Трек 12 нет в базе данных
Трек 13 нет в базе данных
Трек 14 нет в базе данных
Трек 15 нет в базе данных
Ни одного трека нет в базе AccurateRip
Конец отчёта

Отчет Tau Analyzer

Нажми на картинку для увеличения:
Tracks

Spectrum Track 1

Spectrum Track 2

Spectrum Track 3

Spectrum Track 4

Spectrum Track 5

Spectrum Track 6

Spectrum Track 7

Spectrum Track 8

Spectrum Track 9

Spectrum Track 10

Spectrum Track 11

Spectrum Track 12

Spectrum Track 13
Файл по ошибке стерт, выложу позднее
Spectrum Track 14

Spectrum Track 15

2001 Ирина Аллегрова CD «Всё сначала»

Трэклист:
01. Без вины виноватая [0:03:13.06]
02. Аккордеон [0:03:53.19]
03. Всё нормально [0:03:59.52]
04. Александрит от Александра [0:03:45.62]
05. Нечаянная радость [0:05:10.34]
06. Смятение [0:03:29.13]
07. Нежность [0:03:11.28]
08. Холодно [0:03:29.48]
09. Треснувший диск [0:04:22.08]
10. Дикая волчица [0:05:05.17]
11. Канарейка [0:03:01.33]
12. Обалденные глаза [0:03:17.66]
13. Игорь Николаев, Ирина Аллегрова / Старый знакомый [0:04:16.58]
14. Ирина Аллегрова, Лала Аллегрова / Мама [0:05:12.72]
15. Всё сначала... [0:05:24.60]
16. Странник (новая версия) [0:03:26.40]
Общее время звучания – 64 : 20

Log

Exact Audio Copy V0.99 prebeta 4 from 23. January 2008
Отчёт EAC об извлечении, выполненном 8. апреля 2008, 18:12
Ирина Аллегрова / Всё сначала...
Дисковод: _NEC CDRW/DVD CB1100B Adapter: 1 ID: 0
Режим чтения : Достоверность
Использование точного потока : Да
Отключение кэша аудио : Да
Использование указателей C2 : Нет
Коррекция смещения при чтении : 6
Способность читать области Lead-in и Lead-out : Нет
Заполнение пропущенных сэмплов тишиной : Да
Удаление блоков с тишиной в начале и конце : Нет
При вычислениях CRC использовались нулевые сэмплы : Нет
Интерфейс : Встроенный Win32-интерфейс для Win NT/2000
Выходной формат : Внутренние WAV-операции
Формат сэмплов : 44.100 Гц; 16 бит; стерео
TOC извлечённого CD
Трек | Старт | Длительность | Начальный сектор | Конечный сектор
---------------------------------------------------------------------
1 | 0:00.00 | 3:13.06 | 0 | 14480
2 | 3:13.06 | 3:53.19 | 14481 | 31974
3 | 7:06.25 | 3:59.52 | 31975 | 49951
4 | 11:06.02 | 3:45.62 | 49952 | 66888
5 | 14:51.64 | 5:10.34 | 66889 | 90172
6 | 20:02.23 | 3:29.13 | 90173 | 105860
7 | 23:31.36 | 3:11.28 | 105861 | 120213
8 | 26:42.64 | 3:29.48 | 120214 | 135936
9 | 30:12.37 | 4:22.08 | 135937 | 155594
10 | 34:34.45 | 5:05.17 | 155595 | 178486
11 | 39:39.62 | 3:01.33 | 178487 | 192094
12 | 42:41.20 | 3:17.66 | 192095 | 206935
13 | 45:59.11 | 4:16.58 | 206936 | 226193
14 | 50:15.69 | 5:12.72 | 226194 | 249665
15 | 55:28.66 | 5:24.60 | 249666 | 274025
16 | 60:53.51 | 3:26.40 | 274026 | 289515
Характеристики диапазона извлечения и сообщения об ошибках
Выбранный диапазон
Имя файла O:\CD\2001 Ирина Аллегрова - Всё сначала....wav
Пиковый уровень 99.2 %
Качество диапазона 100.0 %
CRC копии 0E91AA6D
Копирование... OK
Ошибок не произошло
AccurateRip: сводка
Трек 1 нет в базе данных
Трек 2 нет в базе данных
Трек 3 нет в базе данных
Трек 4 нет в базе данных
Трек 5 нет в базе данных
Трек 6 нет в базе данных
Трек 7 нет в базе данных
Трек 8 нет в базе данных
Трек 9 нет в базе данных
Трек 10 нет в базе данных
Трек 11 нет в базе данных
Трек 12 нет в базе данных
Трек 13 нет в базе данных
Трек 14 нет в базе данных
Трек 15 нет в базе данных
Трек 16 нет в базе данных
Ни одного трека нет в базе AccurateRip
Конец отчёта

Отчет Tau Analyzer

Нажми на картинку для увеличения:
Tracks

Spectrum Track 1

Spectrum Track 2

Spectrum Track 3

Spectrum Track 4

Spectrum Track 5

Spectrum Track 6

Spectrum Track 7

Spectrum Track 8

Spectrum Track 9

Spectrum Track 10

Spectrum Track 11

Spectrum Track 12

Spectrum Track 13

Spectrum Track 14

Spectrum Track 15

Spectrum Track 16

2002 Ирина Аллегрова CD «The Best»

Трэклист:
01. Старый знакомый [0:04:15.56]
02. Мама [0:05:11.63]
03. Угонщица [0:04:03.65]
04. Сквозняки [0:04:29.64]
05. Над пропастью во ржи [0:04:42.66]
06. Ключи [0:03:38.44]
07. Безответная любовь [0:04:12.04]
08. Привет, Андрей [0:04:03.35]
09. Мой ласковый и нежный зверь [0:04:08.72]
10. Игрушка [0:03:52.43]
11. Свечка [0:04:02.10]
12. Суженый мой [0:03:32.37]
13. Фотография [0:03:27.61]
14. Странник [0:03:08.33]
15. Младший лейтенант [0:03:43.61]
16. Транзит [0:04:08.35]
17. Бабы-стервы [0:03:28.43]
18. Незаконченный роман [0:04:45.42]
Общее время звучания – 72 : 57

Log

Exact Audio Copy V0.99 prebeta 4 from 23. January 2008
Отчёт EAC об извлечении, выполненном 9. апреля 2008, 16:54
Ирина Аллегрова / The Best
Дисковод: _NEC CDRW/DVD CB1100B Adapter: 1 ID: 0
Режим чтения : Достоверность
Использование точного потока : Да
Отключение кэша аудио : Да
Использование указателей C2 : Нет
Коррекция смещения при чтении : 6
Способность читать области Lead-in и Lead-out : Нет
Заполнение пропущенных сэмплов тишиной : Да
Удаление блоков с тишиной в начале и конце : Нет
При вычислениях CRC использовались нулевые сэмплы : Нет
Интерфейс : Встроенный Win32-интерфейс для Win NT/2000
Выходной формат : Внутренние WAV-операции
Формат сэмплов : 44.100 Гц; 16 бит; стерео
TOC извлечённого CD
Трек | Старт | Длительность | Начальный сектор | Конечный сектор
---------------------------------------------------------------------
1 | 0:00.00 | 4:15.56 | 0 | 19180
2 | 4:15.56 | 5:11.63 | 19181 | 42568
3 | 9:27.44 | 4:03.65 | 42569 | 60858
4 | 13:31.34 | 4:29.64 | 60859 | 81097
5 | 18:01.23 | 4:42.66 | 81098 | 102313
6 | 22:44.14 | 3:38.44 | 102314 | 118707
7 | 26:22.58 | 4:12.04 | 118708 | 137611
8 | 30:34.62 | 4:03.35 | 137612 | 155871
9 | 34:38.22 | 4:08.72 | 155872 | 174543
10 | 38:47.19 | 3:52.43 | 174544 | 191986
11 | 42:39.62 | 4:02.10 | 191987 | 210146
12 | 46:41.72 | 3:32.37 | 210147 | 226083
13 | 50:14.34 | 3:27.61 | 226084 | 241669
14 | 53:42.20 | 3:08.33 | 241670 | 255802
15 | 56:50.53 | 3:43.61 | 255803 | 272588
16 | 60:34.39 | 4:08.35 | 272589 | 291223
17 | 64:42.74 | 3:28.43 | 291224 | 306866
18 | 68:11.42 | 4:45.42 | 306867 | 328283
Характеристики диапазона извлечения и сообщения об ошибках
Выбранный диапазон
Имя файла O:\CD\2002 Ирина Аллегрова - The Best.wav
Пиковый уровень 100.0 %
Качество диапазона 100.0 %
CRC копии FA0CE9E3
Копирование... OK
Ошибок не произошло
AccurateRip: сводка
Трек 1 нет в базе данных
Трек 2 нет в базе данных
Трек 3 нет в базе данных
Трек 4 нет в базе данных
Трек 5 нет в базе данных
Трек 6 нет в базе данных
Трек 7 нет в базе данных
Трек 8 нет в базе данных
Трек 9 нет в базе данных
Трек 10 нет в базе данных
Трек 11 нет в базе данных
Трек 12 нет в базе данных
Трек 13 нет в базе данных
Трек 14 нет в базе данных
Трек 15 нет в базе данных
Трек 16 нет в базе данных
Трек 17 нет в базе данных
Трек 18 нет в базе данных
Ни одного трека нет в базе AccurateRip
Конец отчёта

Отчет Tau Analyzer

Нажми на картинку для увеличения:
Tracks

Spectrum Track 1

Spectrum Track 2

Spectrum Track 3

Spectrum Track 4

Spectrum Track 5

Spectrum Track 6

Spectrum Track 7

Spectrum Track 8

Spectrum Track 9

Spectrum Track 10

Spectrum Track 11

Spectrum Track 12

Spectrum Track 13

Spectrum Track 14

Spectrum Track 15

Spectrum Track 16

Spectrum Track 17

Spectrum Track 18

2003 Ирина Аллегрова CD «По лезвию любви»

Трэклист:
01. Проклятая любовь [0:03:10.20]
02. Храм любви [0:03:38.44]
03. Океан любви (remake) [0:03:37.52]
04. Убереги его [0:02:49.12]
05. Я плачу [0:04:08.16]
06. Горькая вишня [0:03:55.32]
07. Две короткие встречи [0:04:09.06]
08. Ты и Я [0:04:41.18]
09. Невинная любовь [0:04:20.22]
10. Скрипач [0:04:31.55]
11. Розы на снегу [0:04:35.12]
12. Проще простого [0:03:42.15]
13. Корабль любви [0:05:20.14]
14. Долюби любовь [0:03:36.60]
15. Подари эту ночь (remake) [0:03:42.18]
16. Мы вдвоём [0:04:30.09]
Общее время звучания – 64 : 28

Log

Exact Audio Copy V0.99 prebeta 4 from 23. January 2008
Отчёт EAC об извлечении, выполненном 9. апреля 2008, 13:55
Ирина Аллегрова / По лезвию любви
Дисковод: _NEC CDRW/DVD CB1100B Adapter: 1 ID: 0
Режим чтения : Достоверность
Использование точного потока : Да
Отключение кэша аудио : Да
Использование указателей C2 : Нет
Коррекция смещения при чтении : 6
Способность читать области Lead-in и Lead-out : Нет
Заполнение пропущенных сэмплов тишиной : Да
Удаление блоков с тишиной в начале и конце : Нет
При вычислениях CRC использовались нулевые сэмплы : Нет
Интерфейс : Встроенный Win32-интерфейс для Win NT/2000
Выходной формат : Внутренние WAV-операции
Формат сэмплов : 44.100 Гц; 16 бит; стерео
TOC извлечённого CD
Трек | Старт | Длительность | Начальный сектор | Конечный сектор
---------------------------------------------------------------------
1 | 0:00.00 | 3:10.20 | 0 | 14269
2 | 3:10.20 | 3:38.44 | 14270 | 30663
3 | 6:48.64 | 3:37.52 | 30664 | 46990
4 | 10:26.41 | 2:49.12 | 46991 | 59677
5 | 13:15.53 | 4:08.16 | 59678 | 78293
6 | 17:23.69 | 3:55.32 | 78294 | 95950
7 | 21:19.26 | 4:09.06 | 95951 | 114631
8 | 25:28.32 | 4:41.18 | 114632 | 135724
9 | 30:09.50 | 4:20.22 | 135725 | 155246
10 | 34:29.72 | 4:31.55 | 155247 | 175626
11 | 39:01.52 | 4:35.12 | 175627 | 196263
12 | 43:36.64 | 3:42.15 | 196264 | 212928
13 | 47:19.04 | 5:20.14 | 212929 | 236942
14 | 52:39.18 | 3:36.60 | 236943 | 253202
15 | 56:16.03 | 3:42.18 | 253203 | 269870
16 | 59:58.21 | 4:30.09 | 269871 | 290129
Характеристики диапазона извлечения и сообщения об ошибках
Выбранный диапазон
Имя файла O:\CD\2003 Ирина Аллегрова - По лезвию любви.wav
Пиковый уровень 99.4 %
Качество диапазона 100.0 %
CRC копии 75658D49
Копирование... OK
Ошибок не произошло
AccurateRip: сводка
Трек 1 нет в базе данных
Трек 2 нет в базе данных
Трек 3 нет в базе данных
Трек 4 нет в базе данных
Трек 5 нет в базе данных
Трек 6 нет в базе данных
Трек 7 нет в базе данных
Трек 8 нет в базе данных
Трек 9 нет в базе данных
Трек 10 нет в базе данных
Трек 11 нет в базе данных
Трек 12 нет в базе данных
Трек 13 нет в базе данных
Трек 14 нет в базе данных
Трек 15 нет в базе данных
Трек 16 нет в базе данных
Ни одного трека нет в базе AccurateRip
Конец отчёта

Отчет Tau Analyzer

Нажми на картинку для увеличения:
Tracks

Spectrum Track 1

Spectrum Track 2

Spectrum Track 3

Spectrum Track 4

Spectrum Track 5

Spectrum Track 6

Spectrum Track 7

Spectrum Track 8

Spectrum Track 9

Spectrum Track 10

Spectrum Track 11

Spectrum Track 12

Spectrum Track 13

Spectrum Track 14

Spectrum Track 15

Spectrum Track 16

2004 Аллегрова Ирина & Михаил Шуфутинский - CD «Пополам»

Трэклист:
01. Колея [0:03:53.04]
02. Заново [0:04:05.24]
03. Посылочка [0:04:31.51]
04. Мышонок [0:04:21.62]
05. Не верь, не бойся... [0:03:17.30]
06. Патрон [0:04:25.21]
07. Одинокая [0:04:36.36]
08. Ты прости меня [0:04:52.56]
09. Новогодние сны [0:04:57.08]
10. Бубны, черви [0:03:51.09]
11. Какие наши годы [0:04:07.73]
12. Пополам [0:05:11.64]
13. Вonus [0:00:46.16]
Общее время звучания – 52 : 58

Log

Exact Audio Copy V0.99 prebeta 4 from 23. January 2008
Отчёт EAC об извлечении, выполненном 8. апреля 2008, 17:19
Аллегрова Ирина & Михаил Шуфутинский / Пополам
Дисковод: _NEC CDRW/DVD CB1100B Adapter: 1 ID: 0
Режим чтения : Достоверность
Использование точного потока : Да
Отключение кэша аудио : Да
Использование указателей C2 : Нет
Коррекция смещения при чтении : 6
Способность читать области Lead-in и Lead-out : Нет
Заполнение пропущенных сэмплов тишиной : Да
Удаление блоков с тишиной в начале и конце : Нет
При вычислениях CRC использовались нулевые сэмплы : Нет
Интерфейс : Встроенный Win32-интерфейс для Win NT/2000
Выходной формат : Внутренние WAV-операции
Формат сэмплов : 44.100 Гц; 16 бит; стерео
TOC извлечённого CD
Трек | Старт | Длительность | Начальный сектор | Конечный сектор
---------------------------------------------------------------------
1 | 0:00.00 | 3:53.04 | 0 | 17478
2 | 3:53.04 | 4:05.24 | 17479 | 35877
3 | 7:58.28 | 4:31.51 | 35878 | 56253
4 | 12:30.04 | 4:21.62 | 56254 | 75890
5 | 16:51.66 | 3:17.30 | 75891 | 90695
6 | 20:09.21 | 4:25.21 | 90696 | 110591
7 | 24:34.42 | 4:36.36 | 110592 | 131327
8 | 29:11.03 | 4:52.56 | 131328 | 153283
9 | 34:03.59 | 4:57.08 | 153284 | 175566
10 | 39:00.67 | 3:51.09 | 175567 | 192900
11 | 42:52.01 | 4:07.73 | 192901 | 211498
12 | 46:59.74 | 5:11.64 | 211499 | 234887
13 | 52:11.63 | 0:46.16 | 234888 | 238353
Характеристики диапазона извлечения и сообщения об ошибках
Выбранный диапазон
Имя файла O:\CD\2004 Аллегрова Ирина & Михаил Шуфутинский - Пополам.wav
Пиковый уровень 99.9 %
Качество диапазона 100.0 %
CRC копии 5C8353BD
Копирование... OK
Ошибок не произошло
AccurateRip: сводка
Трек 1 нет в базе данных
Трек 2 нет в базе данных
Трек 3 нет в базе данных
Трек 4 нет в базе данных
Трек 5 нет в базе данных
Трек 6 нет в базе данных
Трек 7 нет в базе данных
Трек 8 нет в базе данных
Трек 9 нет в базе данных
Трек 10 нет в базе данных
Трек 11 нет в базе данных
Трек 12 нет в базе данных
Трек 13 нет в базе данных
Ни одного трека нет в базе AccurateRip
Конец отчёта

Отчет Tau Analyzer

Нажми на картинку для увеличения:
Tracks

Spectrum Track 1

Spectrum Track 2

Spectrum Track 3

Spectrum Track 4

Spectrum Track 5

Spectrum Track 6

Spectrum Track 7

Spectrum Track 8

Spectrum Track 9

Spectrum Track 10

Spectrum Track 11

Spectrum Track 12
Файла нет, выложу позже
Spectrum Track 13

2005 Ирина Аллегрова CD «С днем рождения»

Трэклист:
01. Алло любовь... [0:03:00.43]
02. Скажи [0:03:28.09]
03. Время от времени [0:04:19.07]
04. Свобода [0:05:57.00]
05. Прощай любовь [0:03:58.36]
06. Чао, Чао [0:03:57.73]
07. Луна [0:03:26.05]
08. Майами [0:03:33.18]
09. Одинокая [0:04:36.25]
10. Коктейль любви [0:04:09.68]
11. Тайна [0:03:23.56]
12. День рождения [0:03:13.38]
Общее время звучания – 47 : 04

Log

Отчёт EAC об извлечении, выполненном 21. июня 2007, 16:19 для диска:
Ирина Аллегрова / С Днем рождения
Дисковод: _NEC CDRW/DVD CB1100B Adapter: 1 ID: 0
Режим чтения: Достоверный (C2: нет, Точный поток: да, Отключение кэша: да)
Коррекция смещения при чтении: 6
Способность читать области Lead-in и Lead-out : Нет
Выходной формат: Внутренние WAV-операции
44.100 Гц; 16 бит; стерео
Другие параметры:
Заполнение пропущенных сэмплов тишиной : Да
Удаление блоков с тишиной в начале и конце : Нет
Установленный внешний ASPI-интерфейс
Характеристики диапазона извлечения и сообщения об ошибках
Выбранный диапазон
Имя файла D:\CD\Ирина Аллегрова\С днем рождения\Ирина Аллегрова - С Днем рождения.wav
Пиковый уровень 100.0 %
Качество диапазона 100.0 %
CRC 522BF2BD
Копирование... OK
Ошибок не произошло
Конец отчёта

Отчет Tau Analyzer

Нажми на картинку для увеличения:
Tracks

Spectrum Track 1

Spectrum Track 2

Spectrum Track 3

Spectrum Track 4

Spectrum Track 5

Spectrum Track 6

Spectrum Track 7

Spectrum Track 8

Spectrum Track 9

Spectrum Track 10

Spectrum Track 11

Spectrum Track 12

2007 Ирина Аллегрова CD «Аллегрова 2007»

Трэклист:
01. Интро [0:04:25.23]
02. Алло [0:03:19.60]
03. Любовь со знаком минус [0:03:26.15]
04. Сведу с ума [0:03:20.15]
05. Селяви [0:03:39.68]
06. Оправданий нет [0:04:00.53]
07. Грешная любовь (дуэт с Сосо Павлиашвили) [0:03:58.45]
08. Не нужен [0:03:10.15]
09. Король и шут [0:03:33.60]
10. Позолота [0:03:54.53]
11. Центы [0:03:31.38]
12. Не верю (дуэт с Григорием Лепсом) [0:04:03.30]
13. Померещилось [0:03:52.53]
14. Ангел [0:03:21.35]
Общее время звучания – 51 : 39

Log

Exact Audio Copy V0.99 prebeta 4 from 23. January 2008
Отчёт EAC об извлечении, выполненном 1. мая 2008, 9:35
Ирина Аллегрова / Аллегрова 2007
Дисковод: _NEC CDRW/DVD CB1100B Adapter: 1 ID: 0
Режим чтения : Достоверность
Использование точного потока : Да
Отключение кэша аудио : Да
Использование указателей C2 : Нет
Коррекция смещения при чтении : 6
Способность читать области Lead-in и Lead-out : Нет
Заполнение пропущенных сэмплов тишиной : Да
Удаление блоков с тишиной в начале и конце : Нет
При вычислениях CRC использовались нулевые сэмплы : Нет
Интерфейс : Встроенный Win32-интерфейс для Win NT/2000
Выходной формат : Внутренние WAV-операции
Формат сэмплов : 44.100 Гц; 16 бит; стерео
TOC извлечённого CD
Трек | Старт | Длительность | Начальный сектор | Конечный сектор
---------------------------------------------------------------------
1 | 0:00.00 | 4:25.23 | 0 | 19897
2 | 4:25.23 | 3:19.60 | 19898 | 34882
3 | 7:45.08 | 3:26.15 | 34883 | 50347
4 | 11:11.23 | 3:20.15 | 50348 | 65362
5 | 14:31.38 | 3:39.68 | 65363 | 81855
6 | 18:11.31 | 4:00.53 | 81856 | 99908
7 | 22:12.09 | 3:58.45 | 99909 | 117803
8 | 26:10.54 | 3:10.15 | 117804 | 132068
9 | 29:20.69 | 3:33.60 | 132069 | 148103
10 | 32:54.54 | 3:54.53 | 148104 | 165706
11 | 36:49.32 | 3:31.38 | 165707 | 181569
12 | 40:20.70 | 4:03.30 | 181570 | 199824
13 | 44:24.25 | 3:52.53 | 199825 | 217277
14 | 48:17.03 | 3:21.35 | 217278 | 232387
Характеристики диапазона извлечения и сообщения об ошибках
Выбранный диапазон
Имя файла O:\CD\2007 Ирина Аллегрова - Аллегрова 2007.wav
Пиковый уровень 99.9 %
Качество диапазона 99.9 %
CRC копии 476AAA9F
Копирование... OK
Ошибок не произошло
AccurateRip: сводка
Трек 1 точное извлечение (доверие 2) [F690AE56]
Трек 2 точное извлечение (доверие 2) [895B9576]
Трек 3 точное извлечение (доверие 2) [56456BBD]
Трек 4 точное извлечение (доверие 2) [9D15E315]
Трек 5 точное извлечение (доверие 2) [1FAFE399]
Трек 6 точное извлечение (доверие 2) [C86367F8]
Трек 7 точное извлечение (доверие 2) [9AAB54DC]
Трек 8 точное извлечение (доверие 2) [6A9E73D5]
Трек 9 точное извлечение (доверие 2) [8E737236]
Трек 10 точное извлечение (доверие 2) [F19A2798]
Трек 11 точное извлечение (доверие 2) [34A62A7B]
Трек 12 точное извлечение (доверие 2) [0AE1DF7E]
Трек 13 точное извлечение (доверие 2) [4BB9F158]
Трек 14 точное извлечение (доверие 2) [E144FE1F]
Все треки извлечены точно
Конец отчёта

Отчет Tau Analyzer

Нажми на картинку для увеличения:
Tracks

Spectrum Track 1

Spectrum Track 2

Spectrum Track 3

Spectrum Track 4

Spectrum Track 5

Spectrum Track 6

Spectrum Track 7

Spectrum Track 8

Spectrum Track 9

Spectrum Track 10

Spectrum Track 11

Spectrum Track 12

Spectrum Track 13

Spectrum Track 14

[Цитировать]



Показать сообщения:    

Текущее время: 10-Дек 08:06

Часовой пояс: UTC + 3


Вы не можете начинать темы
Вы не можете отвечать на сообщения
Вы не можете редактировать свои сообщения
Вы не можете удалять свои сообщения
Вы не можете голосовать в опросах
Вы не можете прикреплять файлы к сообщениям
Вы не можете скачивать файлы

!ВНИМАНИЕ!
Сайт не предоставляет электронные версии произведений, а занимается лишь коллекционированием и каталогизацией ссылок, присылаемых и публикуемых на форуме нашими читателями. Если вы являетесь правообладателем какого-либо представленного материала и не желаете, чтобы ссылка на него находилась в нашем каталоге, свяжитесь с нами, и мы незамедлительно удалим ее. Файлы для обмена на трекере предоставлены пользователями сайта, и администрация не несет ответственности за их содержание. Просьба не заливать файлы, защищенные авторскими правами, а также файлы нелегального содержания!