[ Сегодня идет свободное скачивание без начисления Download ]


Статистика раздачи
Нет
 
   
 
Top  
 
 
Алёна Апина Жанр: Pop
Год выпуска диска: 1993 - 2007
Производитель диска: Россия/Sweden/Korea/
Аудио кодек: FLAC
Тип рипа: image+.cue
Битрейт аудио: lossless
Продолжительность: 8:33:38
Дискография:
1992 — Улица Любви
1993 — Алёна Апина
1993 — Танцевать до утра (Всё так не просто)
1994 — Пляжный сезон
1994 — До и после
1995 — Лимита
1995 — Пропащая душа
1995 — Музыка для дискотек
1996 — Соперница

1997 — Объяснение в любви
1997 — Избранное

1998 — Люби как я
1998 — The best
1999 — Тополя
2001 — О судьбе и о себе
2001 — Ты мне не снишься
2003 — Пойдём со мной, ч.1 — энергетическая
2003 — Пойдём со мной, ч.2 — лирическая
2007 — Самолёт на Москву

Алена Апина (настоящее имя - Елена Левочкина) - солистка группы "Комбинация" (1988-91). Неоднократная участница телевизионных фестивалей "Песня года". Заслуженная артистка России (2002).5.06.2009
Добавлен альбом "Пропащая душа" и "Объяснение в любви"
Спасибо lizing48 за предоставленные рипы со своих дисков

1993.Алена Апина

«Алена Апина » =Трэклист=:
01.Ксюша
02.День рождения
03.Предчувствие
04.Бухгалтер
05.Свидание под грушей
06.Улица любви
07.Ты зачем говоришь о любви
08.Все так не просто
09.Пляжный сезон
10.Были слезы мои
11.Летучий голландец любви
12.Было, девки, было
13.Ложь во спасение
14.Призывник мой, Леха
15.Я тебя у всех украду

Back

Лог

Exact Audio Copy V0.99 prebeta 4 from 23. January 2008
Отчёт EAC об извлечении, выполненном 16. марта 2009, 16:38
Алена Апина / Алена Апина
Дисковод: ASUS DRW-1814BL Adapter: 1 ID: 0
Режим чтения : Достоверность
Использование точного потока : Да
Отключение кэша аудио : Да
Использование указателей C2 : Нет
Коррекция смещения при чтении : 6
Способность читать области Lead-in и Lead-out : Нет
Заполнение пропущенных сэмплов тишиной : Да
Удаление блоков с тишиной в начале и конце : Нет
При вычислениях CRC использовались нулевые сэмплы : Да
Интерфейс : Встроенный Win32-интерфейс для Win NT/2000
Выходной формат : Внутренние WAV-операции
Формат сэмплов : 44.100 Гц; 16 бит; стерео
TOC извлечённого CD
Трек | Старт | Длительность | Начальный сектор | Конечный сектор
---------------------------------------------------------------------
1 | 0:00.30 | 3:16.05 | 30 | 14734
2 | 3:16.35 | 2:50.23 | 14735 | 27507
3 | 6:06.58 | 3:24.62 | 27508 | 42869
4 | 9:31.45 | 4:36.60 | 42870 | 63629
5 | 14:08.30 | 4:02.63 | 63630 | 81842
6 | 18:11.18 | 3:27.50 | 81843 | 97417
7 | 21:38.68 | 4:24.15 | 97418 | 117232
8 | 26:03.08 | 4:16.72 | 117233 | 136504
9 | 30:20.05 | 3:33.43 | 136505 | 152522
10 | 33:53.48 | 4:36.22 | 152523 | 173244
11 | 38:29.70 | 3:34.60 | 173245 | 189354
12 | 42:04.55 | 3:05.48 | 189355 | 203277
13 | 45:10.28 | 4:39.10 | 203278 | 224212
14 | 49:49.38 | 4:03.20 | 224213 | 242457
15 | 53:52.58 | 4:03.45 | 242458 | 260727
Характеристики диапазона извлечения и сообщения об ошибках
Выбранный диапазон
Имя файла E:\НА-А-А-АШЕ!!!!!!!\Алена Апина\1993.Алена Апина\Алена Апина - Алена Апина.wav
Пиковый уровень 100.0 %
Качество диапазона 99.9 %
CRC теста 596E2F77
CRC копии 596E2F77
Копирование... OK
Ошибок не произошло
AccurateRip: сводка
Трек 1 нет в базе данных
Трек 2 нет в базе данных
Трек 3 нет в базе данных
Трек 4 нет в базе данных
Трек 5 нет в базе данных
Трек 6 нет в базе данных
Трек 7 нет в базе данных
Трек 8 нет в базе данных
Трек 9 нет в базе данных
Трек 10 нет в базе данных
Трек 11 нет в базе данных
Трек 12 нет в базе данных
Трек 13 нет в базе данных
Трек 14 нет в базе данных
Трек 15 нет в базе данных
Ни одного трека нет в базе AccurateRip
Конец отчёта

1994.Пляжный сезон

«Пляжный сезон» =Трэклист=:
01.Я не могу любить
02.Пляжный сезон
03.Ой-ой-ой
04.Ложь во спасении
05.Самоубийца
06.Были слезы мои
07.Ну когда по венец
08.Не ходил бы ты за мной
09.Дружочек
10.Все так не просто
11.Я тебя у всех украду
12.Предчувствие

Back

Лог

Exact Audio Copy V0.99 prebeta 4 from 23. January 2008
Отчёт EAC об извлечении, выполненном 5. апреля 2009, 18:44
Алена Апина / Пляжный сезон
Дисковод: ASUS DRW-1814BL Adapter: 1 ID: 0
Режим чтения : Достоверность
Использование точного потока : Да
Отключение кэша аудио : Да
Использование указателей C2 : Нет
Коррекция смещения при чтении : 6
Способность читать области Lead-in и Lead-out : Нет
Заполнение пропущенных сэмплов тишиной : Да
Удаление блоков с тишиной в начале и конце : Нет
При вычислениях CRC использовались нулевые сэмплы : Да
Интерфейс : Установленный внешний ASPI-интерфейс
Выходной формат : Внутренние WAV-операции
Формат сэмплов : 44.100 Гц; 16 бит; стерео
TOC извлечённого CD
Трек | Старт | Длительность | Начальный сектор | Конечный сектор
---------------------------------------------------------------------
1 | 0:00.25 | 4:10.37 | 25 | 18811
2 | 4:10.62 | 3:36.03 | 18812 | 35014
3 | 7:46.65 | 4:10.67 | 35015 | 53831
4 | 11:57.57 | 4:41.08 | 53832 | 74914
5 | 16:38.65 | 4:26.12 | 74915 | 94876
6 | 21:05.02 | 4:40.30 | 94877 | 115906
7 | 25:45.32 | 3:50.73 | 115907 | 133229
8 | 29:36.30 | 3:31.17 | 133230 | 149071
9 | 33:07.47 | 3:32.08 | 149072 | 164979
10 | 36:39.55 | 4:17.35 | 164980 | 184289
11 | 40:57.15 | 4:07.00 | 184290 | 202814
12 | 45:04.15 | 3:20.32 | 202815 | 217846
Характеристики диапазона извлечения и сообщения об ошибках
Выбранный диапазон
Имя файла E:\НА-А-А-АШЕ!!!!!!!\Алена Апина\1994.Пляжный сезон\Алена Апина - Пляжный сезон.wav
Пиковый уровень 100.0 %
Качество диапазона 100.0 %
CRC теста A1374364
CRC копии A1374364
Копирование... OK
Ошибок не произошло
AccurateRip: сводка
Трек 1 нет в базе данных
Трек 2 нет в базе данных
Трек 3 нет в базе данных
Трек 4 нет в базе данных
Трек 5 нет в базе данных
Трек 6 нет в базе данных
Трек 7 нет в базе данных
Трек 8 нет в базе данных
Трек 9 нет в базе данных
Трек 10 нет в базе данных
Трек 11 нет в базе данных
Трек 12 нет в базе данных
Ни одного трека нет в базе AccurateRip
Конец отчёта

1995.Лимита

«Лимита» =Трэклист=:
01.Девятиметровушка
02.Попутка
03.Пол-коечки
04.Вечеринка
05.СП
06.Танцплощадка
07.Конкурс красоты
08.Не привыкай
09.Парень из нашего города
10.Узелки
11.Женька - спонсор
12.Хит - парад
13.Пропиши меня, Москва

Back

Лог

Exact Audio Copy V0.99 prebeta 4 from 23. January 2008
Отчёт EAC об извлечении, выполненном 30. марта 2009, 5:25
Алена Апина / Лимита
Дисковод: ASUS DRW-1814BL Adapter: 1 ID: 0
Режим чтения : Достоверность
Использование точного потока : Да
Отключение кэша аудио : Да
Использование указателей C2 : Нет
Коррекция смещения при чтении : 6
Способность читать области Lead-in и Lead-out : Нет
Заполнение пропущенных сэмплов тишиной : Да
Удаление блоков с тишиной в начале и конце : Нет
При вычислениях CRC использовались нулевые сэмплы : Да
Интерфейс : Установленный внешний ASPI-интерфейс
Выходной формат : Внутренние WAV-операции
Формат сэмплов : 44.100 Гц; 16 бит; стерео
TOC извлечённого CD
Трек | Старт | Длительность | Начальный сектор | Конечный сектор
---------------------------------------------------------------------
1 | 0:00.15 | 3:38.05 | 15 | 16369
2 | 3:38.20 | 2:51.37 | 16370 | 29231
3 | 6:29.57 | 3:47.55 | 29232 | 46311
4 | 10:17.37 | 4:27.68 | 46312 | 66404
5 | 14:45.30 | 3:10.40 | 66405 | 80694
6 | 17:55.70 | 3:34.25 | 80695 | 96769
7 | 21:30.20 | 4:31.07 | 96770 | 117101
8 | 26:01.27 | 3:32.33 | 117102 | 133034
9 | 29:33.60 | 4:22.07 | 133035 | 152691
10 | 33:55.67 | 3:10.23 | 152692 | 166964
11 | 37:06.15 | 3:31.70 | 166965 | 182859
12 | 40:38.10 | 4:08.37 | 182860 | 201496
13 | 44:46.47 | 4:43.40 | 201497 | 222761
Характеристики диапазона извлечения и сообщения об ошибках
Выбранный диапазон
Имя файла E:\НА-А-А-АШЕ!!!!!!!\Алена Апина\1995.Лимита\Алена Апина - Лимита.wav
Пиковый уровень 89.1 %
Качество диапазона 100.0 %
CRC теста 0128E35D
CRC копии 0128E35D
Копирование... OK
Ошибок не произошло
AccurateRip: сводка
Трек 1 нет в базе данных
Трек 2 нет в базе данных
Трек 3 нет в базе данных
Трек 4 нет в базе данных
Трек 5 нет в базе данных
Трек 6 нет в базе данных
Трек 7 нет в базе данных
Трек 8 нет в базе данных
Трек 9 нет в базе данных
Трек 10 нет в базе данных
Трек 11 нет в базе данных
Трек 12 нет в базе данных
Трек 13 нет в базе данных
Ни одного трека нет в базе AccurateRip
Конец отчёта

1995.Пропащая душа

«Пропащая душа» =Трэклист=:
01.Пропащая душа
02.Семечек стакан
03.Дочь городничего
04.День вчерашний
05.Так или иначе
06.Парнишка с гитарой
07.Ветка сирени
08.Пропащая душа (remix)
09.Попурри

Back

Лог (+ скрины Tau Analyzer и Adobe Audition)

Exact Audio Copy V0.99 prebeta 4 from 23. January 2008
Отчёт EAC об извлечении, выполненном 24. мая 2009, 19:15
Алена Апина / Пропащая душа
Дисковод: ASUS DRW-2014S1 Adapter: 2 ID: 0
Режим чтения : Достоверность
Использование точного потока : Да
Отключение кэша аудио : Да
Использование указателей C2 : Нет
Коррекция смещения при чтении : 6
Способность читать области Lead-in и Lead-out : Нет
Заполнение пропущенных сэмплов тишиной : Да
Удаление блоков с тишиной в начале и конце : Нет
При вычислениях CRC использовались нулевые сэмплы : Да
Интерфейс : Встроенный Win32-интерфейс для Win NT/2000
Выходной формат : Внутренние WAV-операции
Формат сэмплов : 44.100 Гц; 16 бит; стерео
TOC извлечённого CD
Трек | Старт | Длительность | Начальный сектор | Конечный сектор
---------------------------------------------------------------------
1 | 0:00.35 | 4:03.50 | 35 | 18309
2 | 4:04.10 | 3:43.72 | 18310 | 35106
3 | 7:48.07 | 3:09.63 | 35107 | 49344
4 | 10:57.70 | 3:12.17 | 49345 | 63761
5 | 14:10.12 | 3:37.68 | 63762 | 80104
6 | 17:48.05 | 3:18.37 | 80105 | 94991
7 | 21:06.42 | 4:33.70 | 94992 | 115536
8 | 25:40.37 | 4:27.28 | 115537 | 135589
9 | 30:07.65 | 18:20.20 | 135590 | 218109
Характеристики диапазона извлечения и сообщения об ошибках
Выбранный диапазон
Имя файла N:\Апина\Алена Апина - Пропащая душа.wav
Пиковый уровень 81.0 %
Качество диапазона 100.0 %
CRC копии B9D8B6B6
Копирование... OK
Ошибок не произошло
Конец отчёта

1995.Музыка для дискотек (Remake)

«Музыка для дискотек (Remake)» =Трэклист=:
01.Было, девки, было
02.Ой-ой-ой
03.Я не могу не любить
04.Пляжный сезон
05.Призывник мой, Леха
06.Ксюша
07.Бухгалтер
08.Улица любви
09.Летучий голландец любви
10.Свидание под грушой

Back

Лог

Exact Audio Copy V0.99 prebeta 4 from 23. January 2008
Отчёт EAC об извлечении, выполненном 16. марта 2009, 17:15
Алена Апина / Музыка для дискотек (Remake)
Дисковод: ASUS DRW-1814BL Adapter: 1 ID: 0
Режим чтения : Достоверность
Использование точного потока : Да
Отключение кэша аудио : Да
Использование указателей C2 : Нет
Коррекция смещения при чтении : 6
Способность читать области Lead-in и Lead-out : Нет
Заполнение пропущенных сэмплов тишиной : Да
Удаление блоков с тишиной в начале и конце : Нет
При вычислениях CRC использовались нулевые сэмплы : Да
Интерфейс : Встроенный Win32-интерфейс для Win NT/2000
Выходной формат : Внутренние WAV-операции
Формат сэмплов : 44.100 Гц; 16 бит; стерео
TOC извлечённого CD
Трек | Старт | Длительность | Начальный сектор | Конечный сектор
---------------------------------------------------------------------
1 | 0:00.33 | 5:38.00 | 33 | 25382
2 | 5:38.33 | 5:23.20 | 25383 | 49627
3 | 11:01.53 | 5:07.20 | 49628 | 72672
4 | 16:08.73 | 5:40.50 | 72673 | 98222
5 | 21:49.48 | 5:59.40 | 98223 | 125187
6 | 27:49.13 | 6:47.22 | 125188 | 155734
7 | 34:36.35 | 5:23.13 | 155735 | 179972
8 | 39:59.48 | 4:40.47 | 179973 | 201019
9 | 44:40.20 | 4:52.05 | 201020 | 222924
10 | 49:32.25 | 5:46.65 | 222925 | 248939
Характеристики диапазона извлечения и сообщения об ошибках
Выбранный диапазон
Имя файла E:\НА-А-А-АШЕ!!!!!!!\Алена Апина\1995.Музыка для дискотек (Remake)\Алена Апина - Музыка для дискотек (Remake).wav
Пиковый уровень 100.0 %
Качество диапазона 100.0 %
CRC теста AD2EB596
CRC копии AD2EB596
Копирование... OK
Ошибок не произошло
AccurateRip: сводка
Трек 1 нет в базе данных
Трек 2 нет в базе данных
Трек 3 нет в базе данных
Трек 4 нет в базе данных
Трек 5 нет в базе данных
Трек 6 нет в базе данных
Трек 7 нет в базе данных
Трек 8 нет в базе данных
Трек 9 нет в базе данных
Трек 10 нет в базе данных
Ни одного трека нет в базе AccurateRip
Конец отчёта

1996.Соперница

«Соперница» =Трэклист=:
01.Кто-то кого-то любит
02.Соперница
03.Ты все-таки уехал
04.Несколько часов любви
05.Устала
06.Не повезло
07.Подари мне цветы
08.Каким ты был
09.Я погадаю
10.На клавишах жизни
11.Мамочка моя
12.Мой единственный
13.Узелки

Back

Лог

Exact Audio Copy V0.99 prebeta 4 from 23. January 2008
Отчёт EAC об извлечении, выполненном 30. марта 2009, 6:21
Алена Апина / Соперница
Дисковод: ASUS DRW-1814BL Adapter: 1 ID: 0
Режим чтения : Достоверность
Использование точного потока : Да
Отключение кэша аудио : Да
Использование указателей C2 : Нет
Коррекция смещения при чтении : 6
Способность читать области Lead-in и Lead-out : Нет
Заполнение пропущенных сэмплов тишиной : Да
Удаление блоков с тишиной в начале и конце : Нет
При вычислениях CRC использовались нулевые сэмплы : Да
Интерфейс : Установленный внешний ASPI-интерфейс
Выходной формат : Внутренние WAV-операции
Формат сэмплов : 44.100 Гц; 16 бит; стерео
TOC извлечённого CD
Трек | Старт | Длительность | Начальный сектор | Конечный сектор
---------------------------------------------------------------------
1 | 0:00.10 | 3:13.35 | 10 | 14519
2 | 3:13.45 | 3:41.55 | 14520 | 31149
3 | 6:55.25 | 4:02.27 | 31150 | 49326
4 | 10:57.52 | 4:01.40 | 49327 | 67441
5 | 14:59.17 | 3:52.28 | 67442 | 84869
6 | 18:51.45 | 3:57.40 | 84870 | 102684
7 | 22:49.10 | 4:11.05 | 102685 | 121514
8 | 27:00.15 | 3:14.35 | 121515 | 136099
9 | 30:14.50 | 3:24.30 | 136100 | 151429
10 | 33:39.05 | 3:43.10 | 151430 | 168164
11 | 37:22.15 | 3:06.55 | 168165 | 182169
12 | 40:28.70 | 4:50.02 | 182170 | 203921
13 | 45:18.72 | 3:08.38 | 203922 | 218059
Характеристики диапазона извлечения и сообщения об ошибках
Выбранный диапазон
Имя файла E:\НА-А-А-АШЕ!!!!!!!\Алена Апина\1996.Соперница\Алена Апина - Соперница.wav
Пиковый уровень 96.6 %
Качество диапазона 100.0 %
CRC теста 53B7418B
CRC копии 53B7418B
Копирование... OK
Ошибок не произошло
AccurateRip: сводка
Трек 1 нет в базе данных
Трек 2 нет в базе данных
Трек 3 нет в базе данных
Трек 4 нет в базе данных
Трек 5 нет в базе данных
Трек 6 нет в базе данных
Трек 7 нет в базе данных
Трек 8 нет в базе данных
Трек 9 нет в базе данных
Трек 10 нет в базе данных
Трек 11 нет в базе данных
Трек 12 нет в базе данных
Трек 13 нет в базе данных
Ни одного трека нет в базе AccurateRip
Конец отчёта

1997.Объяснение в любви

«Объяснение в любви» =Трэклист=:
01.Электричка
02.Объяснение в любви
03.Пароходик
04.Разлука
05.Нелюбимый
06.Всё останется по-прежнему
07.Романс
08.Кольцо
09.Не торопись
10.Иди домой
11.Между двух берегов
12.Ты меня потерял

Back

Лог

Exact Audio Copy V0.99 prebeta 4 from 23. January 2008
Отчёт EAC об извлечении, выполненном 1. июня 2009, 20:55
Алена Апина / Объяснение в любви
Дисковод: ASUS DRW-2014S1 Adapter: 2 ID: 0
Режим чтения : Достоверность
Использование точного потока : Да
Отключение кэша аудио : Да
Использование указателей C2 : Нет
Коррекция смещения при чтении : 6
Способность читать области Lead-in и Lead-out : Нет
Заполнение пропущенных сэмплов тишиной : Да
Удаление блоков с тишиной в начале и конце : Нет
При вычислениях CRC использовались нулевые сэмплы : Да
Интерфейс : Встроенный Win32-интерфейс для Win NT/2000
Выходной формат : Внутренние WAV-операции
Формат сэмплов : 44.100 Гц; 16 бит; стерео
TOC извлечённого CD
Трек | Старт | Длительность | Начальный сектор | Конечный сектор
---------------------------------------------------------------------
1 | 0:00.10 | 4:37.15 | 10 | 20799
2 | 4:37.25 | 4:30.52 | 20800 | 41101
3 | 9:08.02 | 3:41.23 | 41102 | 57699
4 | 12:49.25 | 4:36.10 | 57700 | 78409
5 | 17:25.35 | 3:20.60 | 78410 | 93469
6 | 20:46.20 | 3:58.47 | 93470 | 111366
7 | 24:44.67 | 3:07.23 | 111367 | 125414
8 | 27:52.15 | 3:48.40 | 125415 | 142554
9 | 31:40.55 | 3:15.70 | 142555 | 157249
10 | 34:56.50 | 4:22.20 | 157250 | 176919
11 | 39:18.70 | 3:06.42 | 176920 | 190911
12 | 42:25.37 | 3:45.03 | 190912 | 207789
Характеристики диапазона извлечения и сообщения об ошибках
Выбранный диапазон
Имя файла N:\Новая папка (2)\Алена Апина - Объяснение в любви.wav
Пиковый уровень 97.7 %
Качество диапазона 100.0 %
CRC копии 4895F802
Копирование... OK
Ошибок не произошло
Конец отчёта

1998.Люби как я

«Люби как я» =Трэклист=:
01.Тук-тук
02.Два шага
03.Детство
04.Москвичи
05.Поезд
06.Люби его
07.Снегопад
08.Вишенка
09.Буги-вуги
10.Иванов
11.Билет на самолет
12.Камыши
13.Разве знаешь?

Back

Лог

Exact Audio Copy V0.99 prebeta 4 from 23. January 2008
Отчёт EAC об извлечении, выполненном 16. марта 2009, 17:43
Алена Апина / Люби как я
Дисковод: ASUS DRW-1814BL Adapter: 1 ID: 0
Режим чтения : Достоверность
Использование точного потока : Да
Отключение кэша аудио : Да
Использование указателей C2 : Нет
Коррекция смещения при чтении : 6
Способность читать области Lead-in и Lead-out : Нет
Заполнение пропущенных сэмплов тишиной : Да
Удаление блоков с тишиной в начале и конце : Нет
При вычислениях CRC использовались нулевые сэмплы : Да
Интерфейс : Встроенный Win32-интерфейс для Win NT/2000
Выходной формат : Внутренние WAV-операции
Формат сэмплов : 44.100 Гц; 16 бит; стерео
TOC извлечённого CD
Трек | Старт | Длительность | Начальный сектор | Конечный сектор
---------------------------------------------------------------------
1 | 0:00.10 | 3:41.05 | 10 | 16589
2 | 3:41.15 | 3:23.50 | 16590 | 31864
3 | 7:04.65 | 3:40.72 | 31865 | 48436
4 | 10:45.62 | 4:15.40 | 48437 | 67601
5 | 15:01.27 | 3:37.60 | 67602 | 83936
6 | 18:39.12 | 3:11.25 | 83937 | 98286
7 | 21:50.37 | 4:04.53 | 98287 | 116639
8 | 25:55.15 | 3:51.50 | 116640 | 134014
9 | 29:46.65 | 3:12.25 | 134015 | 148439
10 | 32:59.15 | 3:27.62 | 148440 | 164026
11 | 36:27.02 | 3:13.08 | 164027 | 178509
12 | 39:40.10 | 3:32.40 | 178510 | 194449
13 | 43:12.50 | 4:11.40 | 194450 | 213314
Характеристики диапазона извлечения и сообщения об ошибках
Выбранный диапазон
Имя файла E:\НА-А-А-АШЕ!!!!!!!\Алена Апина\1998.Люби как я\Алена Апина - Люби как я.wav
Пиковый уровень 97.7 %
Качество диапазона 100.0 %
CRC теста C3723CF2
CRC копии C3723CF2
Копирование... OK
Ошибок не произошло
AccurateRip: сводка
Трек 1 нет в базе данных
Трек 2 нет в базе данных
Трек 3 нет в базе данных
Трек 4 нет в базе данных
Трек 5 нет в базе данных
Трек 6 нет в базе данных
Трек 7 нет в базе данных
Трек 8 нет в базе данных
Трек 9 нет в базе данных
Трек 10 нет в базе данных
Трек 11 нет в базе данных
Трек 12 нет в базе данных
Трек 13 нет в базе данных
Ни одного трека нет в базе AccurateRip
Конец отчёта

1999.Тополя

«Тополя» =Трэклист=:
01.Тополя
02.Убегу от тебя
03.Ты придуман для меня
04.Маленький кораблик
05.Разноцветные сны
06.С обоюдного согласия
07.Зима
08.Подари мне ночь
09.Непрошенный ангел
10.Эх, хоть бы раз
11.На теплоходе музыка играет
12.Сенсация

Back

Лог

Exact Audio Copy V0.99 prebeta 4 from 23. January 2008
Отчёт EAC об извлечении, выполненном 16. марта 2009, 23:15
Алена Апина / Тополя
Дисковод: ASUS DRW-1814BL Adapter: 1 ID: 0
Режим чтения : Достоверность
Использование точного потока : Да
Отключение кэша аудио : Да
Использование указателей C2 : Нет
Коррекция смещения при чтении : 6
Способность читать области Lead-in и Lead-out : Нет
Заполнение пропущенных сэмплов тишиной : Да
Удаление блоков с тишиной в начале и конце : Нет
При вычислениях CRC использовались нулевые сэмплы : Да
Интерфейс : Встроенный Win32-интерфейс для Win NT/2000
Выходной формат : Внутренние WAV-операции
Формат сэмплов : 44.100 Гц; 16 бит; стерео
TOC извлечённого CD
Трек | Старт | Длительность | Начальный сектор | Конечный сектор
---------------------------------------------------------------------
1 | 0:00.00 | 4:01.47 | 0 | 18121
2 | 4:01.47 | 3:32.64 | 18122 | 34085
3 | 7:34.36 | 4:03.64 | 34086 | 52374
4 | 11:38.25 | 3:44.26 | 52375 | 69200
5 | 15:22.51 | 3:27.11 | 69201 | 84736
6 | 18:49.62 | 4:17.73 | 84737 | 104084
7 | 23:07.60 | 3:31.68 | 104085 | 119977
8 | 26:39.53 | 3:21.28 | 119978 | 135080
9 | 30:01.06 | 3:19.02 | 135081 | 150007
10 | 33:20.08 | 3:34.43 | 150008 | 166100
11 | 36:54.51 | 3:27.29 | 166101 | 181654
12 | 40:22.05 | 3:15.40 | 181655 | 196319
Характеристики диапазона извлечения и сообщения об ошибках
Выбранный диапазон
Имя файла E:\НА-А-А-АШЕ!!!!!!!\Алена Апина\1999.Тополя\Алена Апина - Тополя.wav
Пиковый уровень 97.7 %
Качество диапазона 100.0 %
CRC теста EDFA8565
CRC копии EDFA8565
Копирование... OK
Ошибок не произошло
AccurateRip: сводка
Трек 1 нет в базе данных
Трек 2 нет в базе данных
Трек 3 нет в базе данных
Трек 4 нет в базе данных
Трек 5 нет в базе данных
Трек 6 нет в базе данных
Трек 7 нет в базе данных
Трек 8 нет в базе данных
Трек 9 нет в базе данных
Трек 10 нет в базе данных
Трек 11 нет в базе данных
Трек 12 нет в базе данных
Ни одного трека нет в базе AccurateRip
Конец отчёта

2001.О судьбе и о себе

«О судьбе и о себе» =Трэклист=:
01.Судьба
02.Завтра
03.Я одна из тех
04.Песня о женской дружбе (дуэт с Лолитой)
05.Дорогая рука
06.Не давай, девочка, матросам
07.Два человека на причале
08.Ой, не держи меня, мама моя
09.Командировачный
10.Без тебя
11.Воскресная жена
12.Не могу

Back

Лог

Exact Audio Copy V0.99 prebeta 4 from 23. January 2008
Отчёт EAC об извлечении, выполненном 16. марта 2009, 18:38
Алена Апина / О судьбе и о себе
Дисковод: ASUS DRW-1814BL Adapter: 1 ID: 0
Режим чтения : Достоверность
Использование точного потока : Да
Отключение кэша аудио : Да
Использование указателей C2 : Нет
Коррекция смещения при чтении : 6
Способность читать области Lead-in и Lead-out : Нет
Заполнение пропущенных сэмплов тишиной : Да
Удаление блоков с тишиной в начале и конце : Нет
При вычислениях CRC использовались нулевые сэмплы : Да
Интерфейс : Встроенный Win32-интерфейс для Win NT/2000
Выходной формат : Внутренние WAV-операции
Формат сэмплов : 44.100 Гц; 16 бит; стерео
TOC извлечённого CD
Трек | Старт | Длительность | Начальный сектор | Конечный сектор
---------------------------------------------------------------------
1 | 0:00.10 | 3:20.25 | 10 | 15034
2 | 3:20.35 | 3:37.03 | 15035 | 31312
3 | 6:57.38 | 3:40.70 | 31313 | 47882
4 | 10:38.33 | 3:15.30 | 47883 | 62537
5 | 13:53.63 | 4:01.33 | 62538 | 80645
6 | 17:55.21 | 3:53.68 | 80646 | 98188
7 | 21:49.14 | 3:50.37 | 98189 | 115475
8 | 25:39.51 | 3:42.67 | 115476 | 132192
9 | 29:22.43 | 3:36.64 | 132193 | 148456
10 | 32:59.32 | 3:43.09 | 148457 | 165190
11 | 36:42.41 | 3:45.24 | 165191 | 182089
12 | 40:27.65 | 4:10.14 | 182090 | 200853
Характеристики диапазона извлечения и сообщения об ошибках
Выбранный диапазон
Имя файла E:\НА-А-А-АШЕ!!!!!!!\Алена Апина\2001.О судьбе и о себе\Алена Апина - О судьбе и о себе.wav
Пиковый уровень 100.0 %
Качество диапазона 100.0 %
CRC теста DBD6D3FE
CRC копии DBD6D3FE
Копирование... OK
Ошибок не произошло
AccurateRip: сводка
Трек 1 нет в базе данных
Трек 2 нет в базе данных
Трек 3 нет в базе данных
Трек 4 нет в базе данных
Трек 5 нет в базе данных
Трек 6 нет в базе данных
Трек 7 нет в базе данных
Трек 8 нет в базе данных
Трек 9 нет в базе данных
Трек 10 нет в базе данных
Трек 11 нет в базе данных
Трек 12 нет в базе данных
Ни одного трека нет в базе AccurateRip
Конец отчёта

2003.Пойдем со мной.Часть первая.Энергетическая

«Пойдем со мной.Часть первая.Энергетическая» =Трэклист=:
01.Пойдём со мной
02.Электричка 2
03.На ночных облаках
04.Она любила вишни
05.Я буду с тобой всегда
06.Женатый
07.Ой, нагадала
08.Поздние яблоки
09.Позови
10.Непогода
11.Завтра
12.Текстильный городок

Back

Лог

Exact Audio Copy V0.99 prebeta 4 from 23. January 2008
Отчёт EAC об извлечении, выполненном 16. марта 2009, 20:36
Алена Апина / Пойдем со мной.Часть первая.Энергетическая
Дисковод: ASUS DRW-1814BL Adapter: 1 ID: 0
Режим чтения : Достоверность
Использование точного потока : Да
Отключение кэша аудио : Да
Использование указателей C2 : Нет
Коррекция смещения при чтении : 6
Способность читать области Lead-in и Lead-out : Нет
Заполнение пропущенных сэмплов тишиной : Да
Удаление блоков с тишиной в начале и конце : Нет
При вычислениях CRC использовались нулевые сэмплы : Да
Интерфейс : Встроенный Win32-интерфейс для Win NT/2000
Выходной формат : Внутренние WAV-операции
Формат сэмплов : 44.100 Гц; 16 бит; стерео
TOC извлечённого CD
Трек | Старт | Длительность | Начальный сектор | Конечный сектор
---------------------------------------------------------------------
1 | 0:00.00 | 2:55.03 | 0 | 13127
2 | 2:55.03 | 3:42.03 | 13128 | 29780
3 | 6:37.06 | 3:31.09 | 29781 | 45614
4 | 10:08.15 | 3:13.49 | 45615 | 60138
5 | 13:21.64 | 3:36.33 | 60139 | 76371
6 | 16:58.22 | 4:02.45 | 76372 | 94566
7 | 21:00.67 | 3:24.52 | 94567 | 109918
8 | 24:25.44 | 3:21.34 | 109919 | 125027
9 | 27:47.03 | 3:52.59 | 125028 | 142486
10 | 31:39.62 | 3:44.25 | 142487 | 159311
11 | 35:24.12 | 4:14.14 | 159312 | 178375
12 | 39:38.26 | 3:03.39 | 178376 | 192139
Характеристики диапазона извлечения и сообщения об ошибках
Выбранный диапазон
Имя файла E:\НА-А-А-АШЕ!!!!!!!\Алена Апина\2003.Пойдем со мной.Часть первая.Энергетическая\Алена Апина - Пойдем со мной.Часть первая.Энергетическая.wav
Пиковый уровень 96.6 %
Качество диапазона 99.9 %
CRC теста ED63EADC
CRC копии ED63EADC
Копирование... OK
Ошибок не произошло
AccurateRip: сводка
Трек 1 нет в базе данных
Трек 2 нет в базе данных
Трек 3 нет в базе данных
Трек 4 нет в базе данных
Трек 5 нет в базе данных
Трек 6 нет в базе данных
Трек 7 нет в базе данных
Трек 8 нет в базе данных
Трек 9 нет в базе данных
Трек 10 нет в базе данных
Трек 11 нет в базе данных
Трек 12 нет в базе данных
Ни одного трека нет в базе AccurateRip
Конец отчёта

2003.Пойдем со мной.Часть вторая.Лирическая

«Пойдем со мной.Часть вторая.Лирическая» =Трэклист=:
01.Грешный миг
02.Ночной звонок
03.Канарейка
04.Дождь
05.Девушка, похожая на тебя
06.Осень
07.А мне не жаль
08.Ту-ту
09.Зажигая звезды
10.Параллельно любви
11.Какой он был
12.Я танцую без тебя
13.Не ревнивая
14.Ты мой мужчина

Back

Лог

Exact Audio Copy V0.99 prebeta 4 from 23. January 2008
Отчёт EAC об извлечении, выполненном 16. марта 2009, 19:08
Алена Апина / Пойдем со мной.Часть вторая.Лирическая
Дисковод: ASUS DRW-1814BL Adapter: 1 ID: 0
Режим чтения : Достоверность
Использование точного потока : Да
Отключение кэша аудио : Да
Использование указателей C2 : Нет
Коррекция смещения при чтении : 6
Способность читать области Lead-in и Lead-out : Нет
Заполнение пропущенных сэмплов тишиной : Да
Удаление блоков с тишиной в начале и конце : Нет
При вычислениях CRC использовались нулевые сэмплы : Да
Интерфейс : Встроенный Win32-интерфейс для Win NT/2000
Выходной формат : Внутренние WAV-операции
Формат сэмплов : 44.100 Гц; 16 бит; стерео
TOC извлечённого CD
Трек | Старт | Длительность | Начальный сектор | Конечный сектор
---------------------------------------------------------------------
1 | 0:00.00 | 4:01.63 | 0 | 18137
2 | 4:01.63 | 3:56.34 | 18138 | 35871
3 | 7:58.22 | 4:09.26 | 35872 | 54572
4 | 12:07.48 | 3:53.32 | 54573 | 72079
5 | 16:01.05 | 3:33.54 | 72080 | 88108
6 | 19:34.59 | 3:33.49 | 88109 | 104132
7 | 23:08.33 | 3:20.10 | 104133 | 119142
8 | 26:28.43 | 3:42.45 | 119143 | 135837
9 | 30:11.13 | 3:37.51 | 135838 | 152163
10 | 33:48.64 | 4:22.25 | 152164 | 171838
11 | 38:11.14 | 3:18.10 | 171839 | 186698
12 | 41:29.24 | 4:07.62 | 186699 | 205285
13 | 45:37.11 | 4:24.48 | 205286 | 225133
14 | 50:01.59 | 3:38.35 | 225134 | 241518
Характеристики диапазона извлечения и сообщения об ошибках
Выбранный диапазон
Имя файла E:\НА-А-А-АШЕ!!!!!!!\Алена Апина\2003.Пойдем со мной.Часть вторая.Лирическая\Алена Апина - Пойдем со мной.Часть вторая.Лирическая.wav
Пиковый уровень 100.0 %
Качество диапазона 100.0 %
CRC теста 74B4F82D
CRC копии 74B4F82D
Копирование... OK
Ошибок не произошло
AccurateRip: сводка
Трек 1 нет в базе данных
Трек 2 нет в базе данных
Трек 3 нет в базе данных
Трек 4 нет в базе данных
Трек 5 нет в базе данных
Трек 6 нет в базе данных
Трек 7 нет в базе данных
Трек 8 нет в базе данных
Трек 9 нет в базе данных
Трек 10 нет в базе данных
Трек 11 нет в базе данных
Трек 12 нет в базе данных
Трек 13 нет в базе данных
Трек 14 нет в базе данных
Ни одного трека нет в базе AccurateRip
Конец отчёта

2007.Самолет на Москву

«Самолет на Москву» =Трэклист=:
01.После дождя
02.Самолет на Москву
03.А я любила тебя
04.Ни слова не говори
05.Здравствуй малыш
06.Черная помада (Никому не говори)
07.Белые ночи
08.Подари мне этот вечер
09.Вот такая любовь
10.Колыбельная
11.Росинка
12.Бухгалтер (remix by DJ Smash)
13.Ксюша (remix by DJ Smash)

Back

Лог

Exact Audio Copy V0.99 prebeta 4 from 23. January 2008
Отчёт EAC об извлечении, выполненном 16. марта 2009, 20:49
Алена Апина / Самолет на Москву
Дисковод: ASUS DRW-1814BL Adapter: 1 ID: 0
Режим чтения : Достоверность
Использование точного потока : Да
Отключение кэша аудио : Да
Использование указателей C2 : Нет
Коррекция смещения при чтении : 6
Способность читать области Lead-in и Lead-out : Нет
Заполнение пропущенных сэмплов тишиной : Да
Удаление блоков с тишиной в начале и конце : Нет
При вычислениях CRC использовались нулевые сэмплы : Да
Интерфейс : Встроенный Win32-интерфейс для Win NT/2000
Выходной формат : Внутренние WAV-операции
Формат сэмплов : 44.100 Гц; 16 бит; стерео
TOC извлечённого CD
Трек | Старт | Длительность | Начальный сектор | Конечный сектор
---------------------------------------------------------------------
1 | 0:00.00 | 3:26.23 | 0 | 15472
2 | 3:26.23 | 3:15.24 | 15473 | 30121
3 | 6:41.47 | 3:17.49 | 30122 | 44945
4 | 9:59.21 | 3:30.43 | 44946 | 60738
5 | 13:29.64 | 3:07.74 | 60739 | 74837
6 | 16:37.63 | 3:12.48 | 74838 | 89285
7 | 19:50.36 | 3:39.37 | 89286 | 105747
8 | 23:29.73 | 3:46.53 | 105748 | 122750
9 | 27:16.51 | 3:06.51 | 122751 | 136751
10 | 30:23.27 | 3:45.02 | 136752 | 153628
11 | 34:08.29 | 4:02.40 | 153629 | 171818
12 | 38:10.69 | 4:09.05 | 171819 | 190498
13 | 42:19.74 | 6:00.71 | 190499 | 217569
14 | 50:52.70 | 3:15.15 | 228970 | 243609
Характеристики диапазона извлечения и сообщения об ошибках
Выбранный диапазон
Имя файла E:\НА-А-А-АШЕ!!!!!!!\Алена Апина\2007.Самолет на Москву\Алена Апина - Самолет на Москву.wav
Пиковый уровень 96.7 %
Качество диапазона 99.9 %
CRC теста 1A8F4644
CRC копии 1A8F4644
Копирование... OK
Ошибок не произошло
AccurateRip: сводка
Трек 1 нет в базе данных
Трек 2 нет в базе данных
Трек 3 нет в базе данных
Трек 4 нет в базе данных
Трек 5 нет в базе данных
Трек 6 нет в базе данных
Трек 7 нет в базе данных
Трек 8 нет в базе данных
Трек 9 нет в базе данных
Трек 10 нет в базе данных
Трек 11 нет в базе данных
Трек 12 нет в базе данных
Трек 13 нет в базе данных
Ни одного трека нет в базе AccurateRip
Конец отчёта

[Цитировать]



Показать сообщения:    

Текущее время: 10-Дек 23:30

Часовой пояс: UTC + 3


Вы не можете начинать темы
Вы не можете отвечать на сообщения
Вы не можете редактировать свои сообщения
Вы не можете удалять свои сообщения
Вы не можете голосовать в опросах
Вы не можете прикреплять файлы к сообщениям
Вы не можете скачивать файлы

!ВНИМАНИЕ!
Сайт не предоставляет электронные версии произведений, а занимается лишь коллекционированием и каталогизацией ссылок, присылаемых и публикуемых на форуме нашими читателями. Если вы являетесь правообладателем какого-либо представленного материала и не желаете, чтобы ссылка на него находилась в нашем каталоге, свяжитесь с нами, и мы незамедлительно удалим ее. Файлы для обмена на трекере предоставлены пользователями сайта, и администрация не несет ответственности за их содержание. Просьба не заливать файлы, защищенные авторскими правами, а также файлы нелегального содержания!