[ Сегодня идет свободное скачивание без начисления Download ]


Статистика раздачи
Нет
 
   
 
Top  
 
 
РАЗМЕР_Project (ex. Русский Размер) - Дискография (4 CD)- -Жанр: Pop
Страна-производитель диска: Россия
Год издания диска: 2006-2012
Аудио кодек: FLAC (*.flac)
Тип рипа: image+.cue
Битрейт аудио: lossless
Источник (релизер): Собственная коллекция
Наличие сканов в содержимом раздачи: Да (600 dpi, jpeg)
-

Витя (2006)

Витя- Страна-производитель диска: Россия
Год издания диска: 2006
Издатель (лейбл): Veter Entertainment
Номер по каталогу: Veter-59-2
Аудио кодек: FLAC (*.flac)
Тип рипа: image+.cue
Битрейт аудио: lossless
Продолжительность: 48:37-Треклист:
1. Lamina Luna 5:47
2. Прости, прощай 4:36
3. Одинокая 4:11
4. Кнопочки баянные 3:58
5. Я её хой 4:02
6. Моя любовь 3:55
7. Не надо 2:58
8. Детство 5:00
9. Ангел 5:19
10. Небо 4:01
11. Не надо (club mix) 4:18-

Лог создания рипа

Exact Audio Copy V0.99 prebeta 5 from 4. May 2009
Отчёт EAC об извлечении, выполненном 12. октября 2010, 14:25
Арина&Размер_Project / Витя
Дисковод: ASUS DRW-24B1LT Adapter: 3 ID: 0
Режим чтения : ДостоверностьИспользование точного потока : ДаОтключение кэша аудио : ДаИспользование указателей C2 : Нет
Коррекция смещения при чтении : 6Способность читать области Lead-in и Lead-out : НетЗаполнение пропущенных сэмплов тишиной : ДаУдаление блоков с тишиной в начале и конце : НетПри вычислениях CRC использовались нулевые сэмплы : ДаИнтерфейс : Установленный внешний ASPI-интерфейс
Выходной формат : Внутренние WAV-операцииФормат сэмплов : 44.100 Гц; 16 бит; стерео
TOC извлечённого CD
Трек | Старт | Длительность | Начальный сектор | Конечный сектор --------------------------------------------------------------------- 1 | 0:00.00 | 5:47.28 | 0 | 26052 2 | 5:47.28 | 4:36.17 | 26053 | 46769 3 | 10:23.45 | 4:10.58 | 46770 | 65577 4 | 14:34.28 | 3:58.05 | 65578 | 83432 5 | 18:32.33 | 4:02.37 | 83433 | 101619 6 | 22:34.70 | 3:55.15 | 101620 | 119259 7 | 26:30.10 | 2:58.25 | 119260 | 132634 8 | 29:28.35 | 5:00.24 | 132635 | 155158 9 | 34:28.59 | 5:48.71 | 155159 | 181329 10 | 40:17.55 | 4:00.62 | 181330 | 199391 11 | 44:18.42 | 4:18.14 | 199392 | 218755
Характеристики диапазона извлечения и сообщения об ошибках
Выбранный диапазон
Имя файла I:\EAC\Арина&Размер_Project - Дискография\2006 - Витя\Арина&Размер_Project - Витя.wav
Пиковый уровень 100.0 % Качество диапазона 100.0 % CRC теста B9E4561E CRC копии B9E4561E Копирование... OK
Ошибок не произошло
AccurateRip: сводка
Трек 1 точное извлечение (доверие 1) [69120AF7]Трек 2 точное извлечение (доверие 1) [B71536EE]Трек 3 точное извлечение (доверие 1) [5DF2546D]Трек 4 точное извлечение (доверие 1) [A862EF2A]Трек 5 точное извлечение (доверие 1) [6DCE0DE2]Трек 6 точное извлечение (доверие 1) [A026204A]Трек 7 точное извлечение (доверие 1) [2A8E7E5F]Трек 8 точное извлечение (доверие 1) [BFDF320B]Трек 9 точное извлечение (доверие 1) [8176CE6B]Трек 10 точное извлечение (доверие 1) [07FDB9F8]Трек 11 точное извлечение (доверие 1) [B5FDDF12]
Все треки извлечены точно
Конец отчёта

Скриншот спектра частот

Серебро (2006)

Серебро (feat. Дмитрий Нагиев)- Страна-производитель диска: Россия
Год издания диска: 2006
Издатель (лейбл): KDK - Рекорд
Номер по каталогу: KDK00930
Аудио кодек: FLAC (*.flac)
Тип рипа: image+.cue
Битрейт аудио: lossless
Продолжительность: 54:03-Треклист:
1. Здорова 4:06
2. Делай дело 3:52
3. Моды 4:08
4. Вопросы 3:48
5. Лирика 3:49
6. Родина 3:30
7. До свидания 3:48
8. Ю-А-Ю (club line mix) 4:57
9. Вот так (club line mix) 6:49
10. Ангел дня (club line mix) 5:38
11. Звезда разлуки (club line mix) 4:24
12. Весна (club line mix) 5:14-

Лог создания рипа

Exact Audio Copy V0.99 prebeta 5 from 4. May 2009
Отчёт EAC об извлечении, выполненном 11. октября 2010, 16:56
Арина&Размер_Project / Серебро
Дисковод: ASUS DRW-24B1LT Adapter: 3 ID: 0
Режим чтения : ДостоверностьИспользование точного потока : ДаОтключение кэша аудио : ДаИспользование указателей C2 : Нет
Коррекция смещения при чтении : 6Способность читать области Lead-in и Lead-out : НетЗаполнение пропущенных сэмплов тишиной : ДаУдаление блоков с тишиной в начале и конце : НетПри вычислениях CRC использовались нулевые сэмплы : ДаИнтерфейс : Встроенный Win32-интерфейс для Win NT/2000
Выходной формат : Внутренние WAV-операцииФормат сэмплов : 44.100 Гц; 16 бит; стерео
TOC извлечённого CD
Трек | Старт | Длительность | Начальный сектор | Конечный сектор --------------------------------------------------------------------- 1 | 0:00.00 | 4:05.58 | 0 | 18432 2 | 4:05.58 | 3:52.22 | 18433 | 35854 3 | 7:58.05 | 4:07.68 | 35855 | 54447 4 | 12:05.73 | 3:48.12 | 54448 | 71559 5 | 15:54.10 | 3:48.60 | 71560 | 88719 6 | 19:42.70 | 3:29.62 | 88720 | 104456 7 | 23:12.57 | 3:48.37 | 104457 | 121593 8 | 27:01.19 | 4:56.39 | 121594 | 143832 9 | 31:57.58 | 6:48.50 | 143833 | 174482 10 | 38:46.33 | 5:37.70 | 174483 | 199827 11 | 44:24.28 | 4:24.21 | 199828 | 219648 12 | 48:48.49 | 5:13.74 | 219649 | 243197
Характеристики диапазона извлечения и сообщения об ошибках
Выбранный диапазон
Имя файла I:\EAC\Арина&Размер_Project - Серебро(2006)\Арина&Размер_Project - Серебро.wav
Пиковый уровень 98.8 % Качество диапазона 100.0 % CRC теста 262D8ADC CRC копии 262D8ADC Копирование... OK
Ошибок не произошло
AccurateRip: сводка
Трек 1 нет в базе данныхТрек 2 нет в базе данныхТрек 3 нет в базе данныхТрек 4 нет в базе данныхТрек 5 нет в базе данныхТрек 6 нет в базе данныхТрек 7 нет в базе данныхТрек 8 нет в базе данныхТрек 9 нет в базе данныхТрек 10 нет в базе данныхТрек 11 нет в базе данныхТрек 12 нет в базе данных
Ни одного трека нет в базе AccurateRip
Конец отчёта

Скриншот спектра частот

Предел громкости (2008)+бонус

Предел громкости- Страна-производитель диска: Россия
Год издания диска: 2008
Издатель (лейбл): Мистерия Звука
Номер по каталогу: CD-M+026-2
Аудио кодек: FLAC (*.flac)
Тип рипа: image+.cue
Битрейт аудио: lossless
Продолжительность: 41:55-Треклист:
1. Не бросай 4:54
2. Зови меня 3:40
3. Я там 3:50
4. Ближе 3:25
5. Где-то 4:03
6. Я и Ты 3:27
7. Мне бы 4:28
8. Здравствуй Новый Год 3:34
9. Не бросай (D.I.P. project Electro mix) 3:3
10. Синее море 3:45
11. Навечно молодые 3:15-

Лог создания рипа

Exact Audio Copy V0.99 prebeta 5 from 4. May 2009
Отчёт EAC об извлечении, выполненном 12. октября 2010, 15:10
Арина&Размер_Project / Предел громкости
Дисковод: ASUS DRW-24B1LT Adapter: 3 ID: 0
Режим чтения : ДостоверностьИспользование точного потока : ДаОтключение кэша аудио : ДаИспользование указателей C2 : Нет
Коррекция смещения при чтении : 6Способность читать области Lead-in и Lead-out : НетЗаполнение пропущенных сэмплов тишиной : ДаУдаление блоков с тишиной в начале и конце : НетПри вычислениях CRC использовались нулевые сэмплы : ДаИнтерфейс : Установленный внешний ASPI-интерфейс
Выходной формат : Внутренние WAV-операцииФормат сэмплов : 44.100 Гц; 16 бит; стерео
TOC извлечённого CD
Трек | Старт | Длительность | Начальный сектор | Конечный сектор --------------------------------------------------------------------- 1 | 0:00.00 | 4:53.62 | 0 | 22036 2 | 4:53.62 | 3:40.04 | 22037 | 38540 3 | 8:33.66 | 3:50.27 | 38541 | 55817 4 | 12:24.18 | 3:25.18 | 55818 | 71210 5 | 15:49.36 | 4:03.31 | 71211 | 89466 6 | 19:52.67 | 3:26.71 | 89467 | 104987 7 | 23:19.63 | 4:28.01 | 104988 | 125088 8 | 27:47.64 | 3:34.34 | 125089 | 141172 9 | 31:22.23 | 3:32.59 | 141173 | 157131 10 | 34:55.07 | 3:44.67 | 157132 | 173998 11 | 38:39.74 | 3:15.09 | 173999 | 188632 12 | 44:27.08 | 29:11.32 | 200033 | 331389
Характеристики диапазона извлечения и сообщения об ошибках
Выбранный диапазон
Имя файла I:\EAC\Арина&Размер_Project - Дискография\2008 - Предел громкости\Арина&Размер_Project - Предел громкости.wav
Пиковый уровень 100.0 % Качество диапазона 100.0 % CRC теста EE7C5943 CRC копии EE7C5943 Копирование... OK
Ошибок не произошло
AccurateRip: сводка
Трек 1 точное извлечение (доверие 1) [002FB849]Трек 2 точное извлечение (доверие 1) [92C02658]Трек 3 точное извлечение (доверие 1) [E1F9576B]Трек 4 точное извлечение (доверие 1) [6EA54738]Трек 5 точное извлечение (доверие 1) [64FEEA4A]Трек 6 точное извлечение (доверие 1) [F449B317]Трек 7 точное извлечение (доверие 1) [F3DC9229]Трек 8 точное извлечение (доверие 1) [2A86E52F]Трек 9 точное извлечение (доверие 1) [84F4C565]Трек 10 точное извлечение (доверие 1) [2421E688]Трек 11 точное извлечение (доверие 1) [46429647]
Все треки извлечены точно
Конец отчёта

Скриншот спектра частот

Я и Ты (видеоклип)

Продолжительность: 3:28
Video: MPEG-2 Video 352x288 (4:3) 25,000 кадр/сек 3709 Кбит/сек
Audio: MPEG-1 Audio layer 2 44,1 КГц 2 канала(ов) 192 Кбит/сек

Скриншоты

Родина (видеоклип)

Продолжительность: 3:27
Video : MPEG-2 Video 352x288 (4:3) 25,000 кадр/сек 2737 Кбит/сек
Audio : MPEG-1 Audio layer 2 44,1 КГц 2 канала(ов) 192 Кбит/сек

Скриншоты

Навечно молодые (видеоклип)

Продолжительность: 3:10
Video : MPEG-2 Video 352x288 (4:3) 25,000 кадр/сек 2726 Кбит/сек
Audio : MPEG-1 Audio layer 2 44,1 КГц 2 канала(ов) 192 Кбит/сек

Скриншоты

Музыка как средство для сближения (2012)

Музыка как средство для сближения- Страна-производитель диска: Россия
Год издания диска: 2012
Издатель (лейбл): Квадро-Диск
Номер по каталогу: KTL12-676
Аудио кодек: FLAC (*.flac)
Тип рипа: image+.cue
Битрейт аудио: lossless
Продолжительность: 01:19:48
-Треклист:
1. My Moscow love 3:38
2. Делаю шаг 5:19
3. Забирай (feat. С.Карпов) 2:56
4. Лето 4:11
5. Слезы (feat. Денис Мурзин) 4:58
6. Люди одиночки (feat. Денис Мурзин) 4:08
7. Падает снег 3:48
8. Не нужен (feat. Pavel Popov (front)) 3:08
9. Вспоминай меня (feat. Макс Короваев) 3:53
10. Моя станция секс 2:35
11. В небо 4:02
12. Два шага (feat. Денис Мурзин) 3:25
13. Da mas alagremente 2:54
14. !!!Россия рулит!!! 3:30
15. Люди клоны 5:06
16. Танцуют все 4:03
17. Там где живут звезды (Делаю шаг next step) 3:42
18. Забирай (Hard mix) 3:58
19. F..k the fashion club line one 5:19
20. F..k the fashion club line two 5:17
-

Лог создания рипа

Exact Audio Copy V1.0 beta 3 from 29. August 2011
Отчёт EAC об извлечении, выполненном 16. апреля 2012, 21:17
РАЗМЕР_Project / Музыка как средство для сближения...
Дисковод: HL-DT-STDVDRAM GSA-T50N Adapter: 0 ID: 1
Режим чтения : ДостоверностьИспользование точного потока : ДаОтключение кэша аудио : ДаИспользование указателей C2 : Нет
Коррекция смещения при чтении : 667Способность читать области Lead-in и Lead-out : НетЗаполнение пропущенных сэмплов тишиной : ДаУдаление блоков с тишиной в начале и конце : НетПри вычислениях CRC использовались нулевые сэмплы : ДаИнтерфейс : Встроенный Win32-интерфейс для Win NT/2000
Выходной формат : Внутренние WAV-операцииФормат сэмплов : 44.100 Гц; 16 бит; стерео
TOC извлечённого CD
Трек | Старт | Длительность | Начальный сектор | Конечный сектор --------------------------------------------------------------------- 1 | 0:00.00 | 3:38.02 | 0 | 16351 2 | 3:38.02 | 5:18.38 | 16352 | 40239 3 | 8:56.40 | 2:55.43 | 40240 | 53407 4 | 11:52.08 | 4:10.69 | 53408 | 72226 5 | 16:03.02 | 4:58.01 | 72227 | 94577 6 | 21:01.03 | 4:07.64 | 94578 | 113166 7 | 25:08.67 | 3:47.59 | 113167 | 130250 8 | 28:56.51 | 3:08.02 | 130251 | 144352 9 | 32:04.53 | 3:53.05 | 144353 | 161832 10 | 35:57.58 | 2:34.43 | 161833 | 173425 11 | 38:32.26 | 4:01.42 | 173426 | 191542 12 | 42:33.68 | 3:25.26 | 191543 | 206943 13 | 45:59.19 | 2:54.03 | 206944 | 219996 14 | 48:53.22 | 3:29.49 | 219997 | 235720 15 | 52:22.71 | 5:05.59 | 235721 | 258654 16 | 57:28.55 | 4:03.04 | 258655 | 276883 17 | 61:31.59 | 3:42.20 | 276884 | 293553 18 | 65:14.04 | 3:58.26 | 293554 | 311429 19 | 69:12.30 | 5:18.62 | 311430 | 335341 20 | 74:31.17 | 5:16.62 | 335342 | 359103
Характеристики диапазона извлечения и сообщения об ошибках
Выбранный диапазон
Имя файла C:\Users\ASUS\Music\РАЗМЕР_Project - Музыка как средство для сближения....wav
Пиковый уровень 68.8 % Скорость извлечения 4.4 X Качество диапазона 100.0 % CRC теста B9909B50 CRC копии B9909B50 Копирование... OK
Ошибок не произошло
AccurateRip: сводка
Трек 1 отсутствует в базе данныхТрек 2 отсутствует в базе данныхТрек 3 отсутствует в базе данныхТрек 4 отсутствует в базе данныхТрек 5 отсутствует в базе данныхТрек 6 отсутствует в базе данныхТрек 7 отсутствует в базе данныхТрек 8 отсутствует в базе данныхТрек 9 отсутствует в базе данныхТрек 10 отсутствует в базе данныхТрек 11 отсутствует в базе данныхТрек 12 отсутствует в базе данныхТрек 13 отсутствует в базе данныхТрек 14 отсутствует в базе данныхТрек 15 отсутствует в базе данныхТрек 16 отсутствует в базе данныхТрек 17 отсутствует в базе данныхТрек 18 отсутствует в базе данныхТрек 19 отсутствует в базе данныхТрек 20 отсутствует в базе данных
Ни одного трека нет в базе AccurateRip
Конец отчёта
==== Контрольная сумма отчёта 9FE99FC3857FCF9394D00AD81828D58214E6019EF2A872347EBEF9EE36869E91 ====

Скриншот спектра частот

Благодарю

Огромное спасибо авторам предыдущих раздач: spirit200980 и DobryDen за согласие на объединение/поглощение альбомов, и за труд, который был положен ими в создании собственных раздач. Ещё раз спасибо!
Внимание! Торрент обновлен 17.04.2012 20:27 по MSK. Добавлен альбом "Музыка как средство для сближения" (2012).

[Цитировать]



Показать сообщения:    

Текущее время: 04-Дек 06:59

Часовой пояс: UTC + 3


Вы не можете начинать темы
Вы не можете отвечать на сообщения
Вы не можете редактировать свои сообщения
Вы не можете удалять свои сообщения
Вы не можете голосовать в опросах
Вы не можете прикреплять файлы к сообщениям
Вы не можете скачивать файлы

!ВНИМАНИЕ!
Сайт не предоставляет электронные версии произведений, а занимается лишь коллекционированием и каталогизацией ссылок, присылаемых и публикуемых на форуме нашими читателями. Если вы являетесь правообладателем какого-либо представленного материала и не желаете, чтобы ссылка на него находилась в нашем каталоге, свяжитесь с нами, и мы незамедлительно удалим ее. Файлы для обмена на трекере предоставлены пользователями сайта, и администрация не несет ответственности за их содержание. Просьба не заливать файлы, защищенные авторскими правами, а также файлы нелегального содержания!