[ Сегодня идет свободное скачивание без начисления Download ]


Статистика раздачи
Нет
 
   
 
Top  
 
 
Арктика
__________________________________
Герои (2007, переиздание)
Белая звезда (2009)
Жанр: Pop
Годы выпуска дисков: 2007-2009
Производитель дисков: Украина
Аудио кодек: APE/Normal v4.01
Тип рипа: image+.cue
Битрейт аудио: lossless
Продолжительность: 1час 24мин
Доп. информация: диски мои
Полиграфия: 300dpi в полном объёме
    контейнер: pdf, сжатие: jpeg2000 lossless
    выполнен Descreen
    ничего лишнего по краям не обрезано
    смежные страницы буклетов состыкованы идеально

2007 - Герои (переиздание)

Годы выпуска диска: 2007
Продолжительность: 46:33
Треклист:
01. Звезда (3:17)
02. Можешь не верить (3:44)
03. Глупо & наивно (2:50)
04. Нечаянно (4:18)
05. Скучаю (2:39)
06. Времени нет (3:41)
07. Чуть-чуть (3:57)
08. Не сопротивляйся (3:07)
09. Сердце... (4:25)
10. Бесконечность (3:47)
11. Женщины-враги (3:59)
12. Услышь меня (3:45)
13. Герои (3:03)

Отчет EAC

Exact Audio Copy V0.99 prebeta 5 from 4. May 2009
EAC extraction logfile from 20. July 2009, 15:57
Арктика / Герои
Used drive : LITE-ON DVDRW LH-20A1H Adapter: 0 ID: 0
Read mode : SecureUtilize accurate stream : YesDefeat audio cache : YesMake use of C2 pointers : No
Read offset correction : 6Overread into Lead-In and Lead-Out : NoFill up missing offset samples with silence : YesDelete leading and trailing silent blocks : NoNull samples used in CRC calculations : YesUsed interface : Native Win32 interface for Win NT & 2000
Used output format : Internal WAV RoutinesSample format : 44.100 Hz; 16 Bit; Stereo
TOC of the extracted CD
Track | Start | Length | Start sector | End sector --------------------------------------------------------- 1 | 0:00.00 | 3:17.30 | 0 | 14804 2 | 3:17.30 | 3:43.39 | 14805 | 31568 3 | 7:00.69 | 2:50.07 | 31569 | 44325 4 | 9:51.01 | 4:17.55 | 44326 | 63655 5 | 14:08.56 | 2:39.36 | 63656 | 75616 6 | 16:48.17 | 3:40.41 | 75617 | 92157 7 | 20:28.58 | 3:57.37 | 92158 | 109969 8 | 24:26.20 | 3:07.04 | 109970 | 123998 9 | 27:33.24 | 4:24.55 | 123999 | 143853 10 | 31:58.04 | 3:47.08 | 143854 | 160886 11 | 35:45.12 | 3:59.34 | 160887 | 178845 12 | 39:44.46 | 3:44.67 | 178846 | 195712 13 | 43:29.38 | 3:03.19 | 195713 | 209456
Range status and errors
Selected range
Filename F:\CD-RIP\Арктика - 2007 - Герои.wav
Peak level 100.0 % Range quality 100.0 % Test CRC 673C4BD2 Copy CRC 673C4BD2 Copy OK
No errors occurred
End of status report

Отчет auCDtect

auCDtect v0.8.2Detect mode: 0_________________________________
01. Звезда CDDA (100%)02. Можешь не верить CDDA (100%)03. Глупо & наивно CDDA (100%)04. Нечаянно CDDA (100%)05. Скучаю CDDA (100%)06. Времени нет CDDA (100%)07. Чуть-чуть CDDA (100%)08. Не сопротивляйся CDDA (100%)09. Сердце... CDDA ( 99%)10. Бесконечность CDDA (100%)11. Женщины-враги CDDA (100%)12. Услышь меня CDDA (100%)13. Герои CDDA (100%)_________________________________
Final conclusion: CDDA (99.9%)

2009 - Белая звезда

Годы выпуска диска: 2009
Продолжительность: 37:44
Треклист:
01. Май (3:20)
02. Нечего терять (3:07)
03. Малыш (3:31)
04. Очень-очень (3:02)
05. Все понятно (3:11)
06. Влюбляйся (4:22)
07. Почему (3:58)
08. Юра (3:21)
09. Не вместе (3:13)
10. Пожалуйста (3:28)
11. Белая звезда (3:13)

Отчет EAC

Exact Audio Copy V0.99 prebeta 5 from 4. May 2009
EAC extraction logfile from 20. July 2009, 17:26
Арктика / Белая звезда
Used drive : LITE-ON DVDRW LH-20A1H Adapter: 0 ID: 0
Read mode : SecureUtilize accurate stream : YesDefeat audio cache : YesMake use of C2 pointers : No
Read offset correction : 6Overread into Lead-In and Lead-Out : NoFill up missing offset samples with silence : YesDelete leading and trailing silent blocks : NoNull samples used in CRC calculations : YesUsed interface : Native Win32 interface for Win NT & 2000
Used output format : Internal WAV RoutinesSample format : 44.100 Hz; 16 Bit; Stereo
TOC of the extracted CD
Track | Start | Length | Start sector | End sector --------------------------------------------------------- 1 | 0:00.00 | 3:19.39 | 0 | 14963 2 | 3:19.39 | 3:07.11 | 14964 | 28999 3 | 6:26.50 | 3:30.52 | 29000 | 44801 4 | 9:57.27 | 3:01.44 | 44802 | 58420 5 | 12:58.71 | 3:10.51 | 58421 | 72721 6 | 16:09.47 | 4:22.06 | 72722 | 92377 7 | 20:31.53 | 3:57.38 | 92378 | 110190 8 | 24:29.16 | 3:20.59 | 110191 | 125249 9 | 27:50.00 | 3:13.09 | 125250 | 139733 10 | 31:03.09 | 3:27.70 | 139734 | 155328 11 | 34:31.04 | 3:12.68 | 155329 | 169796
Range status and errors
Selected range
Filename F:\CD-RIP\Арктика - 2009 - Белая звезда.wav
Peak level 97.7 % Range quality 100.0 % Test CRC BBC33F35 Copy CRC BBC33F35 Copy OK
No errors occurred
End of status report

Отчет auCDtect

auCDtect v0.8.2Detect mode: 0______________________________
01. Май CDDA (100%)02. Нечего терять CDDA (100%)03. Малыш MPEG ( 95%)04. Очень-очень CDDA (100%)05. Все понятно CDDA (100%)06. Влюбляйся CDDA (100%)07. Почему CDDA (100%)08. Юра MPEG ( 95%)09. Не вместе CDDA (100%)10. Пожалуйста CDDA (100%)11. Белая звезда CDDA (100%)______________________________
Final conclusion: CDDA (82.7%)

[Цитировать]



Показать сообщения:    

Текущее время: 05-Дек 13:33

Часовой пояс: UTC + 3


Вы не можете начинать темы
Вы не можете отвечать на сообщения
Вы не можете редактировать свои сообщения
Вы не можете удалять свои сообщения
Вы не можете голосовать в опросах
Вы не можете прикреплять файлы к сообщениям
Вы не можете скачивать файлы

!ВНИМАНИЕ!
Сайт не предоставляет электронные версии произведений, а занимается лишь коллекционированием и каталогизацией ссылок, присылаемых и публикуемых на форуме нашими читателями. Если вы являетесь правообладателем какого-либо представленного материала и не желаете, чтобы ссылка на него находилась в нашем каталоге, свяжитесь с нами, и мы незамедлительно удалим ее. Файлы для обмена на трекере предоставлены пользователями сайта, и администрация не несет ответственности за их содержание. Просьба не заливать файлы, защищенные авторскими правами, а также файлы нелегального содержания!