[ Сегодня идет свободное скачивание без начисления Download ]


Статистика раздачи
Нет
 
   
 
Top  
 
 
Ассия Ахат - (3CD)- Жанр: Pop/New Age//Страна-производитель диска: Украина//Издатель (лейбл): Lavina Music//Аудиокодек: FLAC (*.flac)//Тип рипа: image+.cue//Битрейт аудио: lossless//Продолжительность: Указана к альбому//Источник (релизер): Собственные диски//Наличие сканов в содержимом раздачи: да

2006 - Горячий поцелуй (с группой "69")

Номер по каталогу: LM CD 458
Продолжительность: 00:52:48
01. Горячий поцелуй (Ассия Ахат & 69) [03:45]
02. Но не смогла (69) [04:03]
03. Принцип Мата Хари (Ассия Ахат) [04:07]
04. Ах, как бы я хотела (69) [03:07]
05. Прости (Ассия Ахат) [03:40]
06. Я не знаю почему (69) [03:51]
07. Я так хотела (Ассия Ахат) [03:46]
08. Игра на раздевание (69) [03:50]
09. Поняла, что я пропала (Ассия Ахат) [03:36]
10. Поверь, никто не виноват (69) [03:35]
11. Аквамарин (Ассия Ахат) [03:51]
12. Ты с ней (Ассия Ахат) [04:02]
13. Просто радиоволны (Ассия Ахат) [04:05]
14. Fusion (Ассия Ахат) [03:24]

Лог создания рипа

Exact Audio Copy V1.0 beta 1 from 15. November 2010
Отчёт EAC об извлечении, выполненном 12. февраля 2013, 14:30
Ассия Ахат & 69 / Горячий поцелуй
Дисковод: ASUS DRW-24B3ST Adapter: 0 ID: 1
Режим чтения : ДостоверностьИспользование точного потока : ДаОтключение кэша аудио : ДаИспользование указателей C2 : Нет
Коррекция смещения при чтении : 6Способность читать области Lead-in и Lead-out : НетЗаполнение пропущенных сэмплов тишиной : ДаУдаление блоков с тишиной в начале и конце : НетПри вычислениях CRC использовались нулевые сэмплы : ДаИнтерфейс : Встроенный Win32-интерфейс для Win NT/2000
Выходной формат : Пользовательский кодировщикВыбранный битрейт : 896 kBit/sКачество : ВысокийДобавление ID3-тэга : НетУтилита сжатия : C:\Program Files\FLAC\flac.exeДополнительные параметры : -T "DATE=%y" -T "GENRE=%m" -8 -V %s
TOC извлечённого CD
Трек | Старт | Длительность | Начальный сектор | Конечный сектор --------------------------------------------------------------------- 1 | 0:00.00 | 3:45.02 | 0 | 16876 2 | 3:45.02 | 4:04.00 | 16877 | 35176 3 | 7:49.02 | 4:07.72 | 35177 | 53773 4 | 11:56.74 | 3:07.41 | 53774 | 67839 5 | 15:04.40 | 3:40.61 | 67840 | 84400 6 | 18:45.26 | 3:51.18 | 84401 | 101743 7 | 22:36.44 | 3:46.00 | 101744 | 118693 8 | 26:22.44 | 3:50.54 | 118694 | 135997 9 | 30:13.23 | 3:36.02 | 135998 | 152199 10 | 33:49.25 | 3:35.71 | 152200 | 168395 11 | 37:25.21 | 3:51.67 | 168396 | 185787 12 | 41:17.13 | 4:02.20 | 185788 | 203957 13 | 45:19.33 | 4:05.07 | 203958 | 222339 14 | 49:24.40 | 3:24.14 | 222340 | 237653 15 | 55:20.54 | 21:52.51 | 249054 | 347504
Характеристики диапазона извлечения и сообщения об ошибках
Выбранный диапазон
Имя файла D:\trofim\Ассия Ахат & 69 - Горячий поцелуй.wav
Пиковый уровень 97.7 %3.7 X Качество диапазона 100.0 % CRC теста CC75DCCB CRC копии CC75DCCB Копирование... OK
Ошибок не произошло
AccurateRip: сводка
Трек 1 нет в базе данныхТрек 2 нет в базе данныхТрек 3 нет в базе данныхТрек 4 нет в базе данныхТрек 5 нет в базе данныхТрек 6 нет в базе данныхТрек 7 нет в базе данныхТрек 8 нет в базе данныхТрек 9 нет в базе данныхТрек 10 нет в базе данныхТрек 11 нет в базе данныхТрек 12 нет в базе данныхТрек 13 нет в базе данныхТрек 14 нет в базе данных
Ни одного трека нет в базе AccurateRip
Конец отчёта
==== 809DEE57076B6501B947A40EFE592E4691ADE43F548A9967297024B67E1B5623 ====

Лог проверки качества

AUDIOCHECKER v2.0 beta (build 457) - by Dester - opdester@freemail.hu~~~~~~~~~~~~~~~~~~~~~~~~~~~~~~~~~~-=== НЕ РЕДАКТИРУЙТЕ ЭТОТ ФАЙЛ! ===-
Путь: ...\trofim
1 -=- Ассия Ахат & 69 - Горячий поцелуй.flac -=- CDDA (100%)
148187572

Данные о видео

Goryachiy potseluy

Media Info

Format : MPEG-PSFile size : 60.4 MiBDuration : 3mn 54sOverall bit rate : 2 162 Kbps
VideoFormat : MPEG VideoFormat version : Version 1Format settings, BVOP : YesFormat settings, Matrix : DefaultDuration : 3mn 54sBit rate mode : VariableBit rate : 1 895 KbpsNominal bit rate : 2 000 KbpsWidth : 352 pixelsHeight : 288 pixelsDisplay aspect ratio : 4:3Frame rate : 25.000 fpsStandard : PALColor space : YUVBit depth : 8 bitsScan type : ProgressiveBits/(Pixel*Frame) : 0.748Stream size : 53.0 MiB (88%)
AudioID : 192 (0xC0)Format : MPEG AudioFormat version : Version 1Format profile : Layer 2Duration : 3mn 54sBit rate mode : ConstantBit rate : 224 KbpsChannel(s) : 2 channelsSampling rate : 44.1 KHzStream size : 6.26 MiB (10%)

Скриншоты

No ne smogla

Media Info

Format : MPEG-PSFile size : 65.0 MiBDuration : 4mn 12sOverall bit rate : 2 162 Kbps
VideoID : 224 (0xE0)Format : MPEG VideoFormat version : Version 1Format settings, BVOP : YesFormat settings, Matrix : DefaultDuration : 4mn 12sBit rate mode : VariableBit rate : 1 895 KbpsNominal bit rate : 2 000 KbpsWidth : 352 pixelsHeight : 288 pixelsDisplay aspect ratio : 4:3Frame rate : 25.000 fpsStandard : PALColor space : YUVBit depth : 8 bitsScan type : ProgressiveBits/(Pixel*Frame) : 0.748Stream size : 57.0 MiB (88%)
AudioID : 192 (0xC0)Format : MPEG AudioFormat version : Version 1Format profile : Layer 2Duration : 4mn 12sBit rate mode : ConstantBit rate : 224 KbpsChannel(s) : 2 channelsSampling rate : 44.1 KHzStream size : 6.73 MiB (10%)

Скриншоты

Printsip Mata Hari

Media Info

Format : MPEG-PSFile size : 66.5 MiBDuration : 4mn 18sOverall bit rate : 2 162 Kbps
VideoID : 224 (0xE0)Format : MPEG VideoFormat version : Version 1Format settings, BVOP : YesFormat settings, Matrix : DefaultDuration : 4mn 18sBit rate mode : VariableBit rate : 1 895 KbpsNominal bit rate : 2 000 KbpsWidth : 352 pixelsHeight : 288 pixelsDisplay aspect ratio : 4:3Frame rate : 25.000 fpsStandard : PALColor space : YUVBit depth : 8 bitsScan type : ProgressiveBits/(Pixel*Frame) : 0.748Stream size : 58.3 MiB (88%)
AudioID : 192 (0xC0)Format : MPEG AudioFormat version : Version 1Format profile : Layer 2Duration : 4mn 18sBit rate mode : ConstantBit rate : 224 KbpsChannel(s) : 2 channelsSampling rate : 44.1 KHzStream size : 6.89 MiB (10%)

Скриншоты

2006 - Мне это нравится...

Номер по каталогу: LM CD 472
Продолжительность: 00:41:53
01. I like it... [04:43]
02. You are so cool [05:00]
03. Me... Heaven... Wonderful... [05:35]
04. It's our pretty dance [03:13]
05. Wait for me [03:03]
06. Come to me tonight... [04:27]
07. Modern girls [03:27]
08. I don't believe you [03:41]
09. Fantasy [03:20]
10. Happy people [05:21]

Лог создания рипа

Exact Audio Copy V1.0 beta 1 from 15. November 2010
Отчёт EAC об извлечении, выполненном 24. августа 2012, 18:18
Ассия Ахат / Мне это нравится...
Дисковод: ASUS DRW-24B3ST Adapter: 0 ID: 1
Режим чтения : ДостоверностьИспользование точного потока : ДаОтключение кэша аудио : ДаИспользование указателей C2 : Нет
Коррекция смещения при чтении : 6Способность читать области Lead-in и Lead-out : НетЗаполнение пропущенных сэмплов тишиной : ДаУдаление блоков с тишиной в начале и конце : НетПри вычислениях CRC использовались нулевые сэмплы : ДаИнтерфейс : Встроенный Win32-интерфейс для Win NT/2000
Выходной формат : Пользовательский кодировщикВыбранный битрейт : 896 kBit/sКачество : ВысокийДобавление ID3-тэга : НетУтилита сжатия : C:\Program Files\FLAC\flac.exeДополнительные параметры : -T "DATE=%y" -T "GENRE=%m" -8 -V %s
TOC извлечённого CD
Трек | Старт | Длительность | Начальный сектор | Конечный сектор --------------------------------------------------------------------- 1 | 0:00.00 | 4:43.01 | 0 | 21225 2 | 4:43.01 | 5:00.44 | 21226 | 43769 3 | 9:43.45 | 5:35.37 | 43770 | 68931 4 | 15:19.07 | 3:13.16 | 68932 | 83422 5 | 18:32.23 | 3:03.57 | 83423 | 97204 6 | 21:36.05 | 4:27.03 | 97205 | 117232 7 | 26:03.08 | 3:27.37 | 117233 | 132794 8 | 29:30.45 | 3:41.24 | 132795 | 149393 9 | 33:11.69 | 3:20.43 | 149394 | 164436 10 | 36:32.37 | 5:21.31 | 164437 | 188542
Характеристики диапазона извлечения и сообщения об ошибках
Выбранный диапазон
Имя файла D:\trofim\Ассия Ахат - Мне это нравится....wav
Пиковый уровень 97.7 %1.0 X Качество диапазона 100.0 % CRC теста 179B6C25 CRC копии 179B6C25 Копирование... OK
Ошибок не произошло
AccurateRip: сводка
Трек 1 точное извлечение (доверие 1) [EF8673EB]Трек 2 точное извлечение (доверие 1) [020CB672]Трек 3 точное извлечение (доверие 1) [0F0FE913]Трек 4 точное извлечение (доверие 1) [EC850BCD]Трек 5 точное извлечение (доверие 1) [822E7C3A]Трек 6 точное извлечение (доверие 1) [85165714]Трек 7 точное извлечение (доверие 1) [664702C1]Трек 8 точное извлечение (доверие 1) [C8F24C98]Трек 9 точное извлечение (доверие 1) [15C1C627]Трек 10 точное извлечение (доверие 1) [BA2EABD5]
Все треки извлечены точно
Конец отчёта

Лог проверки качества

AUDIOCHECKER v2.0 beta (build 457) - by Dester - opdester@freemail.hu~~~~~~~~~~~~~~~~~~~~~~~~~~~~~~~~~~-=== НЕ РЕДАКТИРУЙТЕ ЭТОТ ФАЙЛ! ===-
Путь: ...\Ассия Ахат - Мне это нравится... (Flac) 2006
1 -=- Ассия Ахат - Мне это нравится....flac -=- CDDA (100%)
64975524

2007 - Я лучшая!

Номер по каталогу: LM CD 529
Продолжительность: 01:02:43
01. Я лучшая [04:06]
02. Май [03:40]
03. Fusion [03:25]
04. Принцип Мата Хари [04:05]
05. Горячий поцелуй [03:45]
06. Ты с ней [04:01]
07. Поняла, что я пропала [03:34]
08. Прости [03:38]
09. Душа болела [03:48]
10. Если Любовь [04:41]
11. Одинокое сердце [04:24]
12. Она тебя ждет [03:50]
13. Мечты [04:25]
14. Шоколад [03:19]
15. Просто Радиоволны [04:49]
16. Шутка [03:07]

Лог создания рипа

Exact Audio Copy V1.0 beta 1 from 15. November 2010
Отчёт EAC об извлечении, выполненном 20. августа 2012, 23:44
Ассия Ахат / Я лучшая!
Дисковод: ASUS DRW-24B3ST Adapter: 0 ID: 1
Режим чтения : ДостоверностьИспользование точного потока : ДаОтключение кэша аудио : ДаИспользование указателей C2 : Нет
Коррекция смещения при чтении : 6Способность читать области Lead-in и Lead-out : НетЗаполнение пропущенных сэмплов тишиной : ДаУдаление блоков с тишиной в начале и конце : НетПри вычислениях CRC использовались нулевые сэмплы : ДаИнтерфейс : Встроенный Win32-интерфейс для Win NT/2000
Выходной формат : Пользовательский кодировщикВыбранный битрейт : 896 kBit/sКачество : ВысокийДобавление ID3-тэга : НетУтилита сжатия : C:\Program Files\FLAC\flac.exeДополнительные параметры : -T "DATE=%y" -T "GENRE=%m" -8 -V %s
TOC извлечённого CD
Трек | Старт | Длительность | Начальный сектор | Конечный сектор --------------------------------------------------------------------- 1 | 0:00.00 | 4:06.20 | 0 | 18469 2 | 4:06.20 | 3:40.00 | 18470 | 34969 3 | 7:46.20 | 3:25.22 | 34970 | 50366 4 | 11:11.42 | 4:05.25 | 50367 | 68766 5 | 15:16.67 | 3:45.28 | 68767 | 85669 6 | 19:02.20 | 4:01.09 | 85670 | 103753 7 | 23:03.29 | 3:34.57 | 103754 | 119860 8 | 26:38.11 | 3:38.41 | 119861 | 136251 9 | 30:16.52 | 3:48.62 | 136252 | 153413 10 | 34:05.39 | 4:41.32 | 153414 | 174520 11 | 38:46.71 | 4:24.02 | 174521 | 194322 12 | 43:10.73 | 3:50.16 | 194323 | 211588 13 | 47:01.14 | 4:25.29 | 211589 | 231492 14 | 51:26.43 | 3:19.33 | 231493 | 246450 15 | 54:46.01 | 4:49.31 | 246451 | 268156 16 | 59:35.32 | 3:07.65 | 268157 | 282246
Характеристики диапазона извлечения и сообщения об ошибках
Выбранный диапазон
Имя файла D:\trofim\Ассия Ахат - Я лучшая!.wav
Пиковый уровень 98.8 %0.4 X Качество диапазона 99.9 % CRC теста 30069099 CRC копии 30069099 Копирование... OK
Ошибок не произошло
AccurateRip: сводка
Трек 1 точное извлечение (доверие 1) [12D83FA4]Трек 2 точное извлечение (доверие 1) [18DC30A9]Трек 3 точное извлечение (доверие 1) [A039B24C]Трек 4 точное извлечение (доверие 1) [DA3E4D06]Трек 5 точное извлечение (доверие 1) [D064FB4B]Трек 6 точное извлечение (доверие 1) [77B2AE1E]Трек 7 точное извлечение (доверие 1) [96199B2E]Трек 8 точное извлечение (доверие 1) [FBDE8379]Трек 9 точное извлечение (доверие 1) [F5C46346]Трек 10 точное извлечение (доверие 1) [D2E5954D]Трек 11 точное извлечение (доверие 1) [54D14103]Трек 12 точное извлечение (доверие 1) [8BFEB84E]Трек 13 точное извлечение (доверие 1) [4F9B5DC3]Трек 14 точное извлечение (доверие 1) [EDD82030]Трек 15 точное извлечение (доверие 1) [04F39EE5]Трек 16 точное извлечение (доверие 1) [95255E9C]
Все треки извлечены точно
Конец отчёта

Лог проверки качества

AUDIOCHECKER v2.0 beta (build 457) - by Dester - opdester@freemail.hu~~~~~~~~~~~~~~~~~~~~~~~~~~~~~~~~~~-=== НЕ РЕДАКТИРУЙТЕ ЭТОТ ФАЙЛ! ===-
Путь: ...\trofim
1 -=- Ассия Ахат - Я лучшая!.flac -=- CDDA (100%)
149837524

[Цитировать]



Показать сообщения:    

Текущее время: 07-Дек 23:21

Часовой пояс: UTC + 3


Вы не можете начинать темы
Вы не можете отвечать на сообщения
Вы не можете редактировать свои сообщения
Вы не можете удалять свои сообщения
Вы не можете голосовать в опросах
Вы не можете прикреплять файлы к сообщениям
Вы не можете скачивать файлы

!ВНИМАНИЕ!
Сайт не предоставляет электронные версии произведений, а занимается лишь коллекционированием и каталогизацией ссылок, присылаемых и публикуемых на форуме нашими читателями. Если вы являетесь правообладателем какого-либо представленного материала и не желаете, чтобы ссылка на него находилась в нашем каталоге, свяжитесь с нами, и мы незамедлительно удалим ее. Файлы для обмена на трекере предоставлены пользователями сайта, и администрация не несет ответственности за их содержание. Просьба не заливать файлы, защищенные авторскими правами, а также файлы нелегального содержания!