[ Сегодня идет свободное скачивание без начисления Download ]


Статистика раздачи
Нет
 
   
 
Top  
 
 
ALINAДИСКОГРАФИЯ (3CD) Жанр: Pop
Страна-производитель диска: Germany
Год издания диска: 2003-2005
Издатель (лейбл): BEILIX MUSIC
Номер по каталогу: AL-70 013 / AL-96 123 / A416159-01
Страна: Россия
Аудио кодек: FLAC
Тип рипа: image+.cue
Битрейт аудио: lossless
Продолжительность: 2:42:10
Источник (релизер): Диски из личной коллекции
Наличие сканов в содержимом раздачи: тут Alina (Алина Вегель) - Дискография (3 Альбома) 320кбит/с
Алина Вегель (Alina Wegel),более известна под псевдонимом ALINA
В Германии у нее издано три музыкальных альбома. Ее песни звучат на популярных радиостанциях России, поклонники с удовольствием посещают концерты с ее участием. Некоторые хиты , написанные певицей Эти жаркие ночи, Дорога в никуда, Мне бы море переплыть, давно известны и любимы не только переселенцам в Европе, но и на просторах СНГ, а также на бывшей Родине - в Казахстане. Лиричные и зажигательные, озорные и душевные, песни под любое настроение удаются ей, на удивление, одинаково. Талант ведь не бывает однобоким, ему присуща многогранность.

2003. Волшебная страна

Волшебная страна Трэклист:
01. Увела чужого парня я
02. Холодно
03. Не таи, скажи
04. Волшебная страна
05. А я не хочу...
06. Ветер
07. Падала звезда
08. На обратном пути
09. Сон
10. Про Вас
11. Унесённые ветром
12. Жёлтый листопад

Лог EAC

Exact Audio Copy V0.99 prebeta 5 from 4. May 2009
Отчёт EAC об извлечении, выполненном 27. ноября 2010, 3:34
Alina / Волшебная страна
Дисковод: ASUS DRW-1814BL Adapter: 0 ID: 1
Режим чтения : ДостоверностьИспользование точного потока : ДаОтключение кэша аудио : ДаИспользование указателей C2 : Нет
Коррекция смещения при чтении : 6Способность читать области Lead-in и Lead-out : НетЗаполнение пропущенных сэмплов тишиной : ДаУдаление блоков с тишиной в начале и конце : НетПри вычислениях CRC использовались нулевые сэмплы : ДаИнтерфейс : Установленный внешний ASPI-интерфейс
Выходной формат : Внутренние WAV-операцииФормат сэмплов : 44.100 Гц; 16 бит; стерео
TOC извлечённого CD
Трек | Старт | Длительность | Начальный сектор | Конечный сектор --------------------------------------------------------------------- 1 | 0:00.00 | 4:21.32 | 0 | 19606 2 | 4:21.32 | 3:33.07 | 19607 | 35588 3 | 7:54.39 | 3:39.34 | 35589 | 52047 4 | 11:33.73 | 5:14.44 | 52048 | 75641 5 | 16:48.42 | 3:03.69 | 75642 | 89435 6 | 19:52.36 | 3:26.26 | 89436 | 104911 7 | 23:18.62 | 3:11.40 | 104912 | 119276 8 | 26:30.27 | 5:02.67 | 119277 | 141993 9 | 31:33.19 | 4:56.13 | 141994 | 164206 10 | 36:29.32 | 4:02.13 | 164207 | 182369 11 | 40:31.45 | 5:37.52 | 182370 | 207696 12 | 46:09.22 | 3:12.41 | 207697 | 222137
Характеристики диапазона извлечения и сообщения об ошибках
Выбранный диапазон
Имя файла D:\Zakler\НА-А-А-АШЕ!!!!!!!\Alina Wegel - Дискография (3CD)\2003. Волшебная страна\Alina - Волшебная страна.wav
Пиковый уровень 99.9 % Качество диапазона 100.0 % CRC теста 19E268B8 CRC копии 19E268B8 Копирование... OK
Ошибок не произошло
AccurateRip: сводка
Трек 1 нет в базе данныхТрек 2 нет в базе данныхТрек 3 нет в базе данныхТрек 4 нет в базе данныхТрек 5 нет в базе данныхТрек 6 нет в базе данныхТрек 7 нет в базе данныхТрек 8 нет в базе данныхТрек 9 нет в базе данныхТрек 10 нет в базе данныхТрек 11 нет в базе данныхТрек 12 нет в базе данных
Ни одного трека нет в базе AccurateRip
Конец отчёта

2004. Отражение

Отражение Трэклист:
01. Эти жаркие, жаркие ночи
02. Скорый поезд опоздал
03. Следы на песке
04. Белая птица
05. Дорога в никуда
06. Плен
07. Холодно (RMX)
08. Приговор
09. Мне бы море переплыть
10. Водолазик
11. Позови
12. Одиночество
13. Скорый поезд (караоке)
14. Эти жаркие, жаркие ночи (караоке)

Лог EAC

Exact Audio Copy V0.99 prebeta 5 from 4. May 2009
Отчёт EAC об извлечении, выполненном 27. ноября 2010, 2:51
Alina / Отражение
Дисковод: ASUS DRW-1814BL Adapter: 0 ID: 1
Режим чтения : ДостоверностьИспользование точного потока : ДаОтключение кэша аудио : ДаИспользование указателей C2 : Нет
Коррекция смещения при чтении : 6Способность читать области Lead-in и Lead-out : НетЗаполнение пропущенных сэмплов тишиной : ДаУдаление блоков с тишиной в начале и конце : НетПри вычислениях CRC использовались нулевые сэмплы : ДаИнтерфейс : Установленный внешний ASPI-интерфейс
Выходной формат : Внутренние WAV-операцииФормат сэмплов : 44.100 Гц; 16 бит; стерео
TOC извлечённого CD
Трек | Старт | Длительность | Начальный сектор | Конечный сектор --------------------------------------------------------------------- 1 | 0:00.00 | 3:47.07 | 0 | 17031 2 | 3:47.07 | 4:30.51 | 17032 | 37332 3 | 8:17.58 | 4:09.35 | 37333 | 56042 4 | 12:27.18 | 4:17.12 | 56043 | 75329 5 | 16:44.30 | 4:26.74 | 75330 | 95353 6 | 21:11.29 | 3:40.59 | 95354 | 111912 7 | 24:52.13 | 4:24.34 | 111913 | 131746 8 | 29:16.47 | 3:37.00 | 131747 | 148021 9 | 32:53.47 | 4:16.27 | 148022 | 167248 10 | 37:09.74 | 3:59.73 | 167249 | 185246 11 | 41:09.72 | 3:57.13 | 185247 | 203034 12 | 45:07.10 | 4:55.39 | 203035 | 225198 13 | 50:02.49 | 4:30.65 | 225199 | 245513 14 | 54:33.39 | 3:47.72 | 245514 | 262610
Характеристики диапазона извлечения и сообщения об ошибках
Выбранный диапазон
Имя файла D:\Zakler\НА-А-А-АШЕ!!!!!!!\Alina Wegel - Дискография (3CD)\2004. Alina - Отражение\Alina - Отражение.wav
Пиковый уровень 99.5 % Качество диапазона 100.0 % CRC теста BA8CA820 CRC копии BA8CA820 Копирование... OK
Ошибок не произошло
AccurateRip: сводка
Трек 1 нет в базе данныхТрек 2 нет в базе данныхТрек 3 нет в базе данныхТрек 4 нет в базе данныхТрек 5 нет в базе данныхТрек 6 нет в базе данныхТрек 7 нет в базе данныхТрек 8 нет в базе данныхТрек 9 нет в базе данныхТрек 10 нет в базе данныхТрек 11 нет в базе данныхТрек 12 нет в базе данныхТрек 13 нет в базе данныхТрек 14 нет в базе данных
Ни одного трека нет в базе AccurateRip
Конец отчёта

2005. Помни меня

Помни меня Трэклист:
01. Хочется, хочется, хочется
02. Помни меня
03. Кошкин блюз
04. Навсегда
05. Солнышко моё ясное
06. Нарисуй мечту
07. Вовка- Вовочка
08. Расскажи, подружка
09. Жизнь за двоих
10. Острова
11. Память
12. Откровение
13. Хочется, хочется, хочется.... (караоке)
14. Вовка - Вовочка (караоке)

Лог EAC

Exact Audio Copy V0.99 prebeta 5 from 4. May 2009
Отчёт EAC об извлечении, выполненном 27. ноября 2010, 4:10
Alina / Помни меня
Дисковод: ASUS DRW-1814BL Adapter: 0 ID: 1
Режим чтения : ДостоверностьИспользование точного потока : ДаОтключение кэша аудио : ДаИспользование указателей C2 : Нет
Коррекция смещения при чтении : 6Способность читать области Lead-in и Lead-out : НетЗаполнение пропущенных сэмплов тишиной : ДаУдаление блоков с тишиной в начале и конце : НетПри вычислениях CRC использовались нулевые сэмплы : ДаИнтерфейс : Установленный внешний ASPI-интерфейс
Выходной формат : Внутренние WAV-операцииФормат сэмплов : 44.100 Гц; 16 бит; стерео
TOC извлечённого CD
Трек | Старт | Длительность | Начальный сектор | Конечный сектор --------------------------------------------------------------------- 1 | 0:00.00 | 3:56.22 | 0 | 17721 2 | 3:56.22 | 4:26.13 | 17722 | 37684 3 | 8:22.35 | 4:11.59 | 37685 | 56568 4 | 12:34.19 | 3:35.18 | 56569 | 72711 5 | 16:09.37 | 4:43.39 | 72712 | 93975 6 | 20:53.01 | 3:33.62 | 93976 | 110012 7 | 24:26.63 | 3:55.66 | 110013 | 127703 8 | 28:22.54 | 4:24.54 | 127704 | 147557 9 | 32:47.33 | 4:05.70 | 147558 | 166002 10 | 36:53.28 | 3:10.69 | 166003 | 180321 11 | 40:04.22 | 3:28.00 | 180322 | 195921 12 | 43:32.22 | 3:04.47 | 195922 | 209768 13 | 46:36.69 | 3:56.22 | 209769 | 227490 14 | 50:33.16 | 3:53.64 | 227491 | 245029
Характеристики диапазона извлечения и сообщения об ошибках
Выбранный диапазон
Имя файла D:\Zakler\НА-А-А-АШЕ!!!!!!!\Alina Wegel - Дискография (3CD)\2005. Помни меня\Alina - Помни меня.wav
Пиковый уровень 99.9 % Качество диапазона 100.0 % CRC теста 09E231EF CRC копии 09E231EF Копирование... OK
Ошибок не произошло
AccurateRip: сводка
Трек 1 нет в базе данныхТрек 2 нет в базе данныхТрек 3 нет в базе данныхТрек 4 нет в базе данныхТрек 5 нет в базе данныхТрек 6 нет в базе данныхТрек 7 нет в базе данныхТрек 8 нет в базе данныхТрек 9 нет в базе данныхТрек 10 нет в базе данныхТрек 11 нет в базе данныхТрек 12 нет в базе данныхТрек 13 нет в базе данныхТрек 14 нет в базе данных
Ни одного трека нет в базе AccurateRip
Конец отчёта

[Цитировать]



Показать сообщения:    

Текущее время: 09-Дек 20:20

Часовой пояс: UTC + 3


Вы не можете начинать темы
Вы не можете отвечать на сообщения
Вы не можете редактировать свои сообщения
Вы не можете удалять свои сообщения
Вы не можете голосовать в опросах
Вы не можете прикреплять файлы к сообщениям
Вы не можете скачивать файлы

!ВНИМАНИЕ!
Сайт не предоставляет электронные версии произведений, а занимается лишь коллекционированием и каталогизацией ссылок, присылаемых и публикуемых на форуме нашими читателями. Если вы являетесь правообладателем какого-либо представленного материала и не желаете, чтобы ссылка на него находилась в нашем каталоге, свяжитесь с нами, и мы незамедлительно удалим ее. Файлы для обмена на трекере предоставлены пользователями сайта, и администрация не несет ответственности за их содержание. Просьба не заливать файлы, защищенные авторскими правами, а также файлы нелегального содержания!