[ Сегодня идет свободное скачивание без начисления Download ]


Статистика раздачи
Нет
 
   
 
Top  
 
 
-Линкольн / Lincoln (2012) BDRemux- Русское название: Линкольн
Оригинальное название: Lincoln
Год выпуска: 2012
Производство: США / DreamWorks Pictures, Twentieth Century Fox Film Corporation, Reliance Entertainment
Жанр: Драма, Военный, Биография, История
Перевод: Многоголосый закадровый, профессиональный [BaiBako]
Субтитры: Вшитые отключаемые
Язык субтитров: Русский, Английский (полные, SDH)
Дата мировой премьеры: 8 октября 2012
Дата российской премьеры: 24 января 2013, «Двадцатый Век Фокс СНГ»
Дата выхода DVD релиза: 16 мая 2013, «Двадцатый Век Фокс СНГ»
Режиссер: Стивен Спилберг
Актеры: Дэниэл Дэй-Льюис, Салли Филд, Джозеф Гордон-Левитт, Джеймс Спэйдер, Хэл Холбрук, Томми Ли Джонс, Джон Хоукс, Джеки Эрл Хейли, Брюс МакГилл
Описание фильма:
Биографическая лента об Аврааме Линкольне, шестнадцатом президенте США, который внес неоценимый вклад в победу северян во времена гражданской войны.

Продолжительность: 02:29:57
Качество видео: BDRemux-Видеокодек: MPEG-4 AVC/H.264
Битрейт видео: ~30,7 Мбит/сек
Размер кадра: 1920 x 1080
Аудио 1: Русский, AC3 5.1, 384 kbps, 48 kHz
Аудио 2: Английский, DTS-HD MA 7.1, 4271 kbps, 48 kHz-Сэмпл: Скачать-

MediaInfo:

Общее
Уникальный идентификатор : 209386197344354982515123917256483518656 (0x9D865092D87CB0E8A0CF475BF029B8C0)
Полное имя : D:\Films\Lincoln.2012.1080p.BDRemux.mkv
Формат : Matroska
Версия формата : Version 2
Размер файла : 35,0 Гбайт
Продолжительность : 2 ч. 29 м.
Режим общего битрейта : Переменный
Общий поток : 33,4 Мбит/сек
Название фильма : Lincoln
Дата кодирования : UTC 2013-03-10 03:41:20
Программа кодирования : mkvmerge v5.2.0 ('I can't explain') built on Dec 18 2011 18:12:03
Библиотека кодирования : libebml v1.2.3 + libmatroska v1.3.0
Видео
Идентификатор : 1
Формат : AVC
Формат/Информация : Advanced Video Codec
Профиль формата : High@L4.1
Параметр CABAC формата : Да
Параметр ReFrames формата : 4 кадра
Идентификатор кодека : V_MPEG4/ISO/AVC
Продолжительность : 2 ч. 29 м.
Вид битрейта : Переменный
Битрейт : 30,7 Мбит/сек
Максимальный битрейт : 37,0 Мбит/сек
Ширина : 1920 пикселей
Высота : 1080 пикселей
Соотношение сторон : 16:9
Частота кадров : 23,976 кадра/сек
Цветовое пространство : YUV
Субдискретизация насыщенности : 4:2:0
Битовая глубина : 8 бит
Тип развёртки : Прогрессивная
Бит/(Пиксели*Кадры) : 0.618
Размер потока : 32,2 Гбайт (92%)
Язык : English
Default : Да
Forced : Нет
Аудио #1
Идентификатор : 2
Формат : AC-3
Формат/Информация : Audio Coding 3
Расширение режима : CM (complete main)
Идентификатор кодека : A_AC3
Продолжительность : 2 ч. 29 м.
Вид битрейта : Постоянный
Битрейт : 384 Кбит/сек
Каналы : 6 каналов
Расположение каналов : Front: L C R, Side: L R, LFE
Частота : 48,0 КГц
Битовая глубина : 16 бит
Метод сжатия : С потерями
Размер потока : 412 Мбайт (1%)
Заголовок : MVO [BaiBako]
Язык : Russian
Default : Да
Forced : Нет
Аудио #2
Идентификатор : 3
Формат : DTS
Формат/Информация : Digital Theater Systems
Профиль формата : MA / Core
Идентификатор кодека : A_DTS
Продолжительность : 2 ч. 29 м.
Вид битрейта : Переменный
Битрейт : 1606 Кбит/сек / 1510 Кбит/сек
Каналы : 8 каналов / 6 каналов
Расположение каналов : Front: L C R, Side: L R, Back: L R, LFE / Front: L C R, Side: L R, LFE
Частота : 48,0 КГц
Битовая глубина : 24 бит
Метод сжатия : Без потерь / Lossy
Заголовок : Lossless
Язык : English
Default : Нет
Forced : Нет
Текст #1
Идентификатор : 4
Формат : UTF-8
Идентификатор кодека : S_TEXT/UTF8
Идентификатор кодека/Информация : UTF-8 Plain Text
Язык : Russian
Default : Нет
Forced : Нет
Текст #2
Идентификатор : 5
Формат : UTF-8
Идентификатор кодека : S_TEXT/UTF8
Идентификатор кодека/Информация : UTF-8 Plain Text
Язык : English
Default : Нет
Forced : Нет
Текст #3
Идентификатор : 6
Формат : UTF-8
Идентификатор кодека : S_TEXT/UTF8
Идентификатор кодека/Информация : UTF-8 Plain Text
Заголовок : SDH
Язык : English
Default : Нет
Forced : Нет
Меню
00:00:00.000 : en:Chapter 00
00:06:11.245 : en:Chapter 01
00:13:57.920 : en:Chapter 02
00:23:16.603 : en:Chapter 03
00:35:13.569 : en:Chapter 04
00:40:31.929 : en:Chapter 05
00:45:53.792 : en:Chapter 06
00:52:56.840 : en:Chapter 07
00:59:45.873 : en:Chapter 08
01:08:25.976 : en:Chapter 09
01:18:55.939 : en:Chapter 10
01:24:30.607 : en:Chapter 11
01:35:41.485 : en:Chapter 12
01:39:58.867 : en:Chapter 13
01:46:40.769 : en:Chapter 14
01:52:54.184 : en:Chapter 15
02:02:51.030 : en:Chapter 16
02:09:32.264 : en:Chapter 17
02:15:42.717 : en:Chapter 18
02:21:23.308 : en:Chapter 19
-Скриншоты:
-Время раздачи: С 8:00 до 22:00 до 5 скачавших

[Цитировать]

Топик был перенесен из форума Новинки кинопроката (HD Video) в форум Зарубежное кино (HD Video)
Bootch



Показать сообщения:    

Текущее время: 11-Дек 11:09

Часовой пояс: UTC + 3


Вы не можете начинать темы
Вы не можете отвечать на сообщения
Вы не можете редактировать свои сообщения
Вы не можете удалять свои сообщения
Вы не можете голосовать в опросах
Вы не можете прикреплять файлы к сообщениям
Вы не можете скачивать файлы

!ВНИМАНИЕ!
Сайт не предоставляет электронные версии произведений, а занимается лишь коллекционированием и каталогизацией ссылок, присылаемых и публикуемых на форуме нашими читателями. Если вы являетесь правообладателем какого-либо представленного материала и не желаете, чтобы ссылка на него находилась в нашем каталоге, свяжитесь с нами, и мы незамедлительно удалим ее. Файлы для обмена на трекере предоставлены пользователями сайта, и администрация не несет ответственности за их содержание. Просьба не заливать файлы, защищенные авторскими правами, а также файлы нелегального содержания!