[ Сегодня идет свободное скачивание без начисления Download ]


Статистика раздачи
Нет
 
   
 
Top  
 
 
-Линкольн / Lincoln (2012) BDRip- Русское название: Линкольн
Оригинальное название: Lincoln
Год выпуска: 2012
Производство: США, DreamWorks SKG, 20th Century Fox Film Corporation, Reliance Entertainment, Participant Media, Dune Entertainment, Amblin Entertainment, The Kennedy/Marshall Company
Жанр: Драма, Военный, Биография, История
Перевод: Профессиональный многоголосый
Озвучка / Автор перевода: Baibako
Субтитры: Вшитые отключаемые
Язык субтитров: Русский, Aнглийский
Дата мировой премьеры: 8 октября 2012
Дата российской премьеры: 24 января 2013, «Двадцатый Век Фокс СНГ»
Дата выхода DVD релиза: 16 мая 2013, «Двадцатый Век Фокс СНГ»
Дата выхода Blu-Ray релиза: 16 мая 2013, «Двадцатый Век Фокс СНГ»
Режиссер: Стивен Спилберг
Продюсер: Стивен Спилберг, Кэтлин Кеннеди, Джонатан Кинг
Актеры: Дэниэл Дэй-Льюис, Салли Филд, Дэвид Стрэтэйрн, Джозеф Гордон-Левитт, Джеймс Спэйдер, Хэл Холбрук, Томми Ли Джонс, Джон Хоукс, Джеки Эрл Хейли, Брюс МакГилл, Тим Блейк Нельсон, Джозеф Кросс, Джаред Харрис, Ли Пейс, Питер МакРобби, Гулливер МакГрат, Глория Рубен, Джереми Стронг, Майкл Стулбарг, Борис МакГайвер, Дэвид Костабайл, Стивен Спинелла, Уолтон Гоггинс, Дэвид Уоршофски, Колман Доминго, Дэвид Ойелоуо, Лукас Хаас, Дэйн ДеХаан, Карлос Томпсон, Билл Кэмп, Элизабет Марвел, Байрон Дженнингс, Джули Уайт
Описание фильма:
Биографическая лента об Аврааме Линкольне, шестнадцатом президенте США, который внес неоценимый вклад в победу северян во времена гражданской войны.

Продолжительность: 02:29:57
Качество видео: BDRip
Видеокодек: MPEG-4 AVC/H.264
Битрейт видео: ~6051 Kbit/s
Размер кадра: 1280 x 534
Aудио #1: AC3, 48,0 КHz, 5.1, 384 Kbit/s (Русский многоголосый)
Aудио #2: DTS, 48,0 КHz, 5.1, 1510 Kbit/s (Оригинальный английский)

MediaInfo

Общее
Уникальный идентификатор : 254524562654347132758458538702467436878 (0xBF7BA5CE580655338F2F78C813EF114E)
Полное имя : D:\Торренты\Линкольн.2012.BDRip.720p.mkv
Формат : Matroska
Размер файла : 8,32 Гбайт
Продолжительность : 2 ч. 29 м.
Общий поток : 7946 Кбит/сек
Дата кодирования : UTC 2013-03-09 18:44:16
Программа кодирования : mkvmerge v6.1.0 ('Old Devil')
Библиотека кодирования : libebml v1.3.0 + libmatroska v1.4.0
Видео
Идентификатор : 1
Формат : AVC
Формат/Информация : Advanced Video Codec
Профиль формата : High@L4.1
Параметр CABAC формата : Да
Параметр ReFrames формата : 10 кадров
Параметры GOP формата : M=7, N=56
Идентификатор кодека : V_MPEG4/ISO/AVC
Продолжительность : 2 ч. 29 м.
Битрейт : 6051 Кбит/сек
Ширина : 1280 пикс.
Высота : 534 пикс.
Соотношение сторон : 2,35:1
Частота кадров : 23,976 кадр/сек
Цветовое пространство : YUV
Подвыборка цветности : 4:2:0
Битовая глубина : 8 бит
Тип развёртки : Прогрессивная
Бит/(Пиксели*Кадры) : 0.369
Размер потока : 6,17 Гбайт (74%)
Библиотека кодирования : x264 core 125 r2208 d9d2288
Настройки программы : cabac=1 / ref=10 / deblock=1:-3:-3 / analyse=0x3:0x113 / me=umh / subme=10 / psy=1 / psy_rd=1.05:0.10 / mixed_ref=1 / me_range=32 / chroma_me=1 / trellis=2 / 8x8dct=1 / cqm=0 / deadzone=21,11 / fast_pskip=0 / chroma_qp_offset=-2 / threads=8 / lookahead_threads=1 / sliced_threads=0 / nr=0 / decimate=1 / interlaced=0 / bluray_compat=0 / constrained_intra=0 / bframes=6 / b_pyramid=2 / b_adapt=2 / b_bias=0 / direct=3 / weightb=1 / open_gop=0 / weightp=2 / keyint=250 / keyint_min=23 / scenecut=40 / intra_refresh=0 / rc=2pass / mbtree=0 / bitrate=6051 / ratetol=1.0 / qcomp=0.70 / qpmin=0 / qpmax=69 / qpstep=4 / cplxblur=20.0 / qblur=0.5 / ip_ratio=1.40 / pb_ratio=1.30 / aq=2:1.00
Язык : English
Аудио #1
Идентификатор : 2
Формат : AC-3
Формат/Информация : Audio Coding 3
Расширение режима : CM (complete main)
Идентификатор кодека : A_AC3
Продолжительность : 2 ч. 29 м.
Вид битрейта : Постоянный
Битрейт : 384 Кбит/сек
Каналы : 6 каналов
Расположение каналов : Front: L C R, Side: L R, LFE
Частота : 48,0 КГц
Битовая глубина : 16 бит
Метод сжатия : С потерями
Размер потока : 412 Мбайт (5%)
Заголовок : BaiBaKo AC3 5.1 384kbps
Язык : Russian
Аудио #2
Идентификатор : 3
Формат : DTS
Формат/Информация : Digital Theater Systems
Идентификатор кодека : A_DTS
Продолжительность : 2 ч. 29 м.
Вид битрейта : Постоянный
Битрейт : 1510 Кбит/сек
Каналы : 6 каналов
Расположение каналов : Front: L C R, Side: L R, LFE
Частота : 48,0 КГц
Битовая глубина : 24 бит
Метод сжатия : С потерями
Размер потока : 1,58 Гбайт (19%)
Заголовок : DTS-CORE 1536K
Язык : English
Текст #1
Идентификатор : 4
Формат : UTF-8
Идентификатор кодека : S_TEXT/UTF8
Идентификатор кодека/Информация : UTF-8 Plain Text
Заголовок : Notabenoid
Язык : Russian
Текст #2
Идентификатор : 5
Формат : UTF-8
Идентификатор кодека : S_TEXT/UTF8
Идентификатор кодека/Информация : UTF-8 Plain Text
Заголовок : Addic7ed
Язык : English
Текст #3
Идентификатор : 6
Формат : UTF-8
Идентификатор кодека : S_TEXT/UTF8
Идентификатор кодека/Информация : UTF-8 Plain Text
Заголовок : SDH
Язык : English
Скриншоты:
Время раздачи: 24/7 по возможности

[Цитировать]

Топик был перенесен из форума Новинки кинопроката (HD Video) в форум Зарубежное кино (HD Video)
Bootch



Показать сообщения:    

Текущее время: 11-Дек 12:55

Часовой пояс: UTC + 3


Вы не можете начинать темы
Вы не можете отвечать на сообщения
Вы не можете редактировать свои сообщения
Вы не можете удалять свои сообщения
Вы не можете голосовать в опросах
Вы не можете прикреплять файлы к сообщениям
Вы не можете скачивать файлы

!ВНИМАНИЕ!
Сайт не предоставляет электронные версии произведений, а занимается лишь коллекционированием и каталогизацией ссылок, присылаемых и публикуемых на форуме нашими читателями. Если вы являетесь правообладателем какого-либо представленного материала и не желаете, чтобы ссылка на него находилась в нашем каталоге, свяжитесь с нами, и мы незамедлительно удалим ее. Файлы для обмена на трекере предоставлены пользователями сайта, и администрация не несет ответственности за их содержание. Просьба не заливать файлы, защищенные авторскими правами, а также файлы нелегального содержания!