[ Сегодня идет свободное скачивание без начисления Download ]


Статистика раздачи
Нет
 
   
 
Top  
 
 
-Ночь страха 3D / Fright Night 3D (2011) [1080p] BDRip[Горизонтальная анаморфная стереопара]- Русское название: Ночь страха 3D
Оригинальное название: Fright Night 3D
Год выпуска: 2011
Страна: США
Студия: DreamWorks Pictures, Reliance Entertainment
Жанр: Ужасы, Триллер, Комедия
Описание фильма:
Выпускник школы Чарли Брюстер находится на пике своей ученической карьеры: он популярен среди сверстников и встречается с самой очаровательной девушкой во всей школе. Он становится настолько крут, что начинает избегать своего когда-то лучшего друга Эда. Неприятности для Чарли начинаются, когда по соседству прописывается Джерри.
На первый взгляд он кажется хорошим парнем, но все же что-то с ним не так, хотя никто этого не замечает, даже мать Чарли. После анализа странного поведения соседа Чарли приходит к ужасному, но, увы, единственному верному заключению: под лживой маской Джерри скрывается кровожадный вампир, который сделал его район своими охотничьими угодьями.
Не в силах убедить кого бы то ни было в своей правоте, Чарли обращается за помощью и советом к популярному иллюзионисту из Лас-Вегаса Питеру Винсенту, рассчитывая, что кудесник поможет ему избавиться от монстра.
Режиссер: Крэйг Гиллеспи
Актеры: Колин Фаррелл, Антон Ельчин, Тони Коллетт, Дэвид Теннант, Имоджен Путс, Кристофер Минц-Плассе, Дэйв Франко, Рейд Юинг, Уилл Дентон, Сандра Вергара
Бюджет $30 000 000
Продолжительность: 01:45:00
Перевод: Дублированный

Дата мировой премьеры: 14 августа 2011
Дата российской премьеры: 22 сентября 2011, «WDSSPR»
Дата выхода DVD релиза: 13 декабря 2011, «Уолт Дисней Компани СНГ»
Релиз на Blu-Ray: 13 декабря 2011, «Уолт Дисней Компани СНГ»
Видеокодек: MPEG-4 AVC/H.264
Битрейт видео: 9866 Кбит/сек
Размер кадра: 1920х1080
Качество видео: BDRip
Контейнер: MKV
Формат: 3D Half OverUnder / Вертикальная анаморфная стереопара
Аудио: Русский/дубляж, AC3 / 48 KHz / 6.0 ch / 640 Kbps
Аудио 2: Украинский / AC3 / 48 KHz / 6.0 ch / 640 Kbps
Субтитры: отсутствуют

MediaInfo:

Общее
Уникальный идентификатор : 221398150546166622841786532530040027129 (0xA68FBB9744058BB6825863B9BF9737F9)
Полное имя : Ночь страха 3D.halfOU.mkv
Формат : Matroska
Версия формата : Version 1
Размер файла : 8,42 Гбайт
Продолжительность : 1 ч. 45 м.
Общий поток : 11,4 Мбит/сек
Название фильма : Rip by - Seksi03 - X-TORRENTS
Дата кодирования : UTC 2012-01-03 15:20:08
Программа кодирования : mkvmerge v2.0.2 ('You're My Flame') built on Feb 21 2007 23:40:55
Библиотека кодирования : libebml v0.7.7 + libmatroska v0.8.1
Видео
Идентификатор : 1
Формат : AVC
Формат/Информация : Advanced Video Codec
Профиль формата : [email protected]
Параметр CABAC формата : Да
Параметр ReFrames формата : 2 кадра
Идентификатор кодека : V_MPEG4/ISO/AVC
Продолжительность : 1 ч. 45 м.
Битрейт : 9866 Кбит/сек
Ширина : 1920 пикселей
Высота : 1080 пикселей
Соотношение сторон : 16:9
Частота кадров : 23,976 кадра/сек
Цветовое пространство : YUV
Субдискретизация насыщенности : 4:2:0
Битовая глубина : 8 бит
Тип развёртки : Прогрессивная
Бит/(Пиксели*Кадры) : 0.198
Размер потока : 7,30 Гбайт (87%)
Заголовок : Rip by - Seksi03 - X-TORRENTS
Библиотека кодирования : x264 core
Default : Да
Forced : Нет
Основные цвета : BT.709-5, BT.1361, IEC 61966-2-4, SMPTE RP177
Характеристики трансфера : BT.709-5, BT.1361
Коэффициенты матрицы : BT.709-5, BT.1361, IEC 61966-2-4 709, SMPTE RP177
Аудио #1
Идентификатор : 2
Формат : AC-3
Формат/Информация : Audio Coding 3
Расширение режима : CM (complete main)
Параметр Endianness формата : Big
Идентификатор кодека : A_AC3
Продолжительность : 1 ч. 45 м.
Вид битрейта : Постоянный
Битрейт : 640 Кбит/сек
Каналы : 6 каналов
Расположение каналов : Front: L C R, Side: L R, LFE
Частота : 48,0 КГц
Битовая глубина : 16 бит
Метод сжатия : С потерями
Размер потока : 485 Мбайт (6%)
Язык : Russian
Default : Да
Forced : Нет
Аудио #2
Идентификатор : 3
Формат : AC-3
Формат/Информация : Audio Coding 3
Расширение режима : CM (complete main)
Параметр Endianness формата : Big
Идентификатор кодека : A_AC3
Продолжительность : 1 ч. 45 м.
Вид битрейта : Постоянный
Битрейт : 640 Кбит/сек
Каналы : 6 каналов
Расположение каналов : Front: L C R, Side: L R, LFE
Частота : 48,0 КГц
Битовая глубина : 16 бит
Метод сжатия : С потерями
Размер потока : 485 Мбайт (6%)
Язык : Ukrainian
Default : Нет
Forced : Нет
Меню
00:00:00.000 : en:(01)00:00:00:000
00:03:18.823 : en:(02)00:03:18:823
00:08:09.530 : en:(03)00:08:09:530
00:13:27.681 : en:(04)00:13:27:681
00:18:02.790 : en:(05)00:18:02:790
00:22:20.130 : en:(06)00:22:20:130
00:29:50.789 : en:(07)00:29:50:789
00:33:50.862 : en:(08)00:33:50:862
00:40:25.756 : en:(09)00:40:25:756
00:45:05.202 : en:(10)00:45:05:202
00:52:02.786 : en:(11)00:52:02:786
00:58:06.357 : en:(12)00:58:06:357
01:04:17.645 : en:(13)01:04:17:645
01:09:29.623 : en:(14)01:09:29:623
01:16:26.331 : en:(15)01:16:26:331
01:19:17.669 : en:(16)01:19:17:669
01:24:27.228 : en:(17)01:24:27:228
01:30:26.796 : en:(18)01:30:26:796
01:36:37.333 : en:(19)01:36:37:333
01:38:21.395 : en:(20)01:38:21:395
01:45:58.185 : en:(21)01:45:58:185
ПРИЯТНОГО ПРОСМОТРАСкриншоты:
Время раздачи: по возможности круглосуточно

[Цитировать]



Показать сообщения:    

Текущее время: 05-Дек 17:38

Часовой пояс: UTC + 3


Вы не можете начинать темы
Вы не можете отвечать на сообщения
Вы не можете редактировать свои сообщения
Вы не можете удалять свои сообщения
Вы не можете голосовать в опросах
Вы не можете прикреплять файлы к сообщениям
Вы не можете скачивать файлы

!ВНИМАНИЕ!
Сайт не предоставляет электронные версии произведений, а занимается лишь коллекционированием и каталогизацией ссылок, присылаемых и публикуемых на форуме нашими читателями. Если вы являетесь правообладателем какого-либо представленного материала и не желаете, чтобы ссылка на него находилась в нашем каталоге, свяжитесь с нами, и мы незамедлительно удалим ее. Файлы для обмена на трекере предоставлены пользователями сайта, и администрация не несет ответственности за их содержание. Просьба не заливать файлы, защищенные авторскими правами, а также файлы нелегального содержания!