[ Сегодня идет свободное скачивание без начисления Download ]


Статистика раздачи
Нет
 
   
 
Top  
 
 
-Путешествие 2: Таинственный остров / Journey 2: The Mysterious Island (2012)BDRip 3D-«Поверь в невозможное - открой невероятное!»- Релиз от:
Русское название: Путешествие 2: Таинственный остров
Оригинальное название: Journey 2: The Mysterious Island
Год выпуска: 2012
Жанр: фантастика, комедия, приключения, семейный
Страна: США-Описание фильма:
На этот раз Шон Андерсон получает закодированный сигнал с просьбой о помощи, причем с загадочного острова, из места, где никакого острова и быть не может. Там обитают странные формы жизни, скрываются горы золота, смертоносные вулканы и не одна ошеломляющая тайна. Отчиму Шона, не сумевшему остановить его, ничего не остается, как тоже присоединиться к поискам. Вместе с пилотом вертолета и его прекрасной и решительной дочерью им предстоит найти остров, спасти его одинокого обитателя и немедленно покинуть это место, прежде чем землетрясение скроет остров под водой и похоронит навеки его сокровища...-Режиссер: Брэд Пейтон
Актеры: Дуэйн Джонсон, Майкл Кейн, Джош Хатчерсон, Ванесса Энн Хадженс, Луис Гузман, Кристин Дэвис, Анна Колвелл, Стивен Кодилл, Брэнском Ричмонд, Уолтер Бэнксон-Рейтинги:
Дата мировой премьеры: 19 января 2012
Дата премьеры (РФ): 9 февраля 2012, «Каро-Премьер»
Релиз на Blu-Ray: 28 мая 2012, «CP Дистрибуция»-Перевод: Русский и Украинский дубляж
Субтитры: Нет
Продолжительность: 01:34:11
Контейнер: MKV
Качество видео: BDRip 3D
Формат 3D: Half SideBySide / Горизонтальная анаморфная стереопара
Порядок ракурсов: Левый первый
Видеокодек: MPEG-4 AVC / H.264
Битрейт видео: ~ 18,4 mbps
Размер кадра: 1920x1080p
Аудиокодек: AC3
Аудио:
1. Английский Dolby Digital Audio / 5.1 / 48 kHz / 640 kbps
2. Русский Dolby Digital Audio / 5.1 / 48 kHz / 640 kbps (DUB)
3. Украинский Dolby Digital Audio / 5.1 / 48 kHz / 640 kbps (DUB)

MediaInfo

Общее
Уникальный идентификатор : 252910851197218782299244822531168793805 (0xBE44DBB0401F10A5A4EE434673DFF4CD)
Полное имя : G:\My Rip\Journey 2. The Mysterious Island.mkv
Формат : Matroska
Версия формата : Version 2
Размер файла : 13,6 Гбайт
Продолжительность : 1 ч. 34 м.
Режим общего битрейта : Переменный
Общий поток : 20,7 Мбит/сек
Название фильма : Journey 2. The Mysterious Island
Дата кодирования : UTC 2012-06-26 14:22:44
Программа кодирования : mkvmerge v4.8.0 ('I Got The...') сборка от May 24 2011 03:12:58
Библиотека кодирования : libebml v1.2.0 + libmatroska v1.1.0
Видео
Идентификатор : 1
Формат : AVC
Формат/Информация : Advanced Video Codec
Профиль формата : [email protected]
Параметр CABAC формата : Да
Параметр ReFrames формата : 3 кадра
Идентификатор кодека : V_MPEG4/ISO/AVC
Продолжительность : 1 ч. 34 м.
Вид битрейта : Переменный
Битрейт : 18,4 Мбит/сек
Максимальный битрейт : 20,0 Мбит/сек
Ширина : 1920 пикселей
Высота : 1080 пикселей
Соотношение сторон : 16:9
Частота кадров : 23,976 кадра/сек
Цветовое пространство : YUV
Субдискретизация насыщенности : 4:2:0
Битовая глубина : 8 бит
Тип развёртки : Прогрессивная
Бит/(Пиксели*Кадры) : 0.370
Размер потока : 12,1 Гбайт (89%)
Заголовок : Journey 2. The Mysterious Island [Morbid Angel ®]
Библиотека кодирования : x264 core 116 r2074 2641b9e
Настройки программы : cabac=1 / ref=4 / deblock=1:-2:-2 / analyse=0x3:0x133 / me=umh / subme=8 / psy=1 / psy_rd=1.00:0.15 / mixed_ref=1 / me_range=24 / chroma_me=1 / trellis=1 / 8x8dct=1 / cqm=0 / deadzone=21,11 / fast_pskip=1 / chroma_qp_offset=-3 / threads=6 / sliced_threads=0 / slices=4 / nr=0 / decimate=1 / interlaced=0 / bluray_compat=0 / constrained_intra=0 / bframes=3 / b_pyramid=1 / b_adapt=2 / b_bias=0 / direct=3 / weightb=1 / open_gop=0 / weightp=0 / keyint=24 / keyint_min=2 / scenecut=40 / intra_refresh=0 / rc_lookahead=24 / rc=crf / mbtree=1 / crf=16.0 / qcomp=0.60 / qpmin=0 / qpmax=69 / qpstep=4 / vbv_maxrate=20000 / vbv_bufsize=20000 / crf_max=0.0 / nal_hrd=vbr / ip_ratio=1.40 / aq=1:1.00
Язык : English
Default : Да
Forced : Нет
Аудио #1
Идентификатор : 2
Формат : AC-3
Формат/Информация : Audio Coding 3
Расширение режима : CM (complete main)
Идентификатор кодека : A_AC3
Продолжительность : 1 ч. 34 м.
Вид битрейта : Постоянный
Битрейт : 640 Кбит/сек
Каналы : 6 каналов
Расположение каналов : Front: L C R, Side: L R, LFE
Частота : 48,0 КГц
Битовая глубина : 16 бит
Метод сжатия : С потерями
Размер потока : 431 Мбайт (3%)
Язык : English
Default : Нет
Forced : Нет
Аудио #2
Идентификатор : 3
Формат : AC-3
Формат/Информация : Audio Coding 3
Расширение режима : CM (complete main)
Идентификатор кодека : A_AC3
Продолжительность : 1 ч. 34 м.
Вид битрейта : Постоянный
Битрейт : 640 Кбит/сек
Каналы : 6 каналов
Расположение каналов : Front: L C R, Side: L R, LFE
Частота : 48,0 КГц
Битовая глубина : 16 бит
Метод сжатия : С потерями
Размер потока : 431 Мбайт (3%)
Язык : Russian
Default : Да
Forced : Нет
Аудио #3
Идентификатор : 4
Формат : AC-3
Формат/Информация : Audio Coding 3
Расширение режима : CM (complete main)
Идентификатор кодека : A_AC3
Продолжительность : 1 ч. 34 м.
Вид битрейта : Постоянный
Битрейт : 640 Кбит/сек
Каналы : 6 каналов
Расположение каналов : Front: L C R, Side: L R, LFE
Частота : 48,0 КГц
Битовая глубина : 16 бит
Метод сжатия : С потерями
Размер потока : 431 Мбайт (3%)
Язык : Ukrainian
Default : Нет
Forced : Нет
Меню
00:00:00.000 : en:00:00:00.000
00:10:52.402 : en:00:10:52.402
00:19:13.277 : en:00:19:13.277
00:30:06.805 : en:00:30:06.805
00:39:21.442 : en:00:39:21.442
00:49:58.662 : en:00:49:58.662
00:59:03.457 : en:00:59:03.457
01:09:11.773 : en:01:09:11.773
01:19:27.096 : en:01:19:27.096
01:26:03.492 : en:01:26:03.492

А знаете ли вы, что...

  • Съёмки фильма проходили на острове Оаху и в Уилмингтоне.
-Скриншоты:
Время раздачи: 24 / 7- круглосуточно

[Цитировать]



Показать сообщения:    

Текущее время: 06-Дек 08:50

Часовой пояс: UTC + 3


Вы не можете начинать темы
Вы не можете отвечать на сообщения
Вы не можете редактировать свои сообщения
Вы не можете удалять свои сообщения
Вы не можете голосовать в опросах
Вы не можете прикреплять файлы к сообщениям
Вы не можете скачивать файлы

!ВНИМАНИЕ!
Сайт не предоставляет электронные версии произведений, а занимается лишь коллекционированием и каталогизацией ссылок, присылаемых и публикуемых на форуме нашими читателями. Если вы являетесь правообладателем какого-либо представленного материала и не желаете, чтобы ссылка на него находилась в нашем каталоге, свяжитесь с нами, и мы незамедлительно удалим ее. Файлы для обмена на трекере предоставлены пользователями сайта, и администрация не несет ответственности за их содержание. Просьба не заливать файлы, защищенные авторскими правами, а также файлы нелегального содержания!