[ Сегодня идет свободное скачивание без начисления Download ]


Статистика раздачи
Нет
 
   
 
Top  
 
 

Зловещие мертвецы / The Evil Dead

[sh]Зловещие мертвецы / The Evil Dead (1981) BDRip [H.264][/sh]- Русское название: Зловещие мертвецы
Оригинальное название: The Evil Dead
Год выпуска: 1981
Страна: США
Жанр: Ужасы, Фэнтези-Режиссер: Сэм Рэйми
Продюсер: Роберт Дж. Тейперт, Ирвин Шапиро, Брюс Кэмпбелл
В ролях: Брюс Кэмпбелл, Элен Сандвейс, Ричард ДеМанинкор, Бетси Бэкер, Тереза Тилли, Филип Джиллис, Дороти Таперт, Шерил Гаттридж, Барбара Кэри, Дэвид Хортон-Описание фильма: Молодые люди снимают на выходные загородный дом. Находится он в непролазной глуши, выглядит мрачно, а кругом - ни души. Аренда стоит копейки, но не потому, что он того и гляди развалится. Раньше здесь жил археолог, после которого в подвале остались различные мистические артефакты. Например, книга мертвых, предметы неизвестных магических культов и магнитофон с записью заклинания на непонятном языке. Ребята запись прослушали… С наступлением темноты им предстоит встретиться с духами, которых они разбудили!- -Бюджет: $350 000
Сборы в США: $2 400 000
Производство: Renaissance Pictures
Дата мировой премьеры: 15 октября 1981-Продолжительность: 01:25:26
Перевод: Профессиональный (Многоголосый закадровый) Киномания
Субтитры: Отсутствуют-Качество видео: BDRip
Формат: MKV
Видео: MPEG-4 AVC/H.264, 3500 Kbps, 1024 x 554
Аудио: Русский AC3 5.1, 384 Kbps, 48.0 KHz (Многоголосый закадровый) Киномания-

Blu-ray

MediaInfo

Общее
Полное имя : The Evil Dead I.mkv
Формат : Matroska
Версия формата : Version 1
Размер файла : 2,32 Гбайт
Продолжительность : 1 ч. 25 м.
Общий поток : 3886 Кбит/сек
Дата кодирования : UTC 2013-02-23 08:42:11
Программа кодирования : mkvmerge v2.4.1 ('Use Me') built on Dec 5 2008 18:30:05
Библиотека кодирования : libebml v0.7.7 + libmatroska v0.8.1
Видео
Идентификатор : 1
Формат : AVC
Формат/Информация : Advanced Video Codec
Профиль формата : High@L4.1
Параметр CABAC формата : Да
Параметр ReFrames формата : 10 кадров
Идентификатор кодека : V_MPEG4/ISO/AVC
Продолжительность : 1 ч. 25 м.
Битрейт : 3500 Кбит/сек
Ширина : 1024 пикселя
Высота : 554 пикселя
Соотношение сторон : 1,85:1
Режим частоты кадров : Постоянный
Частота кадров : 23,976 кадра/сек
Цветовое пространство : YUV
Субдискретизация насыщенности : 4:2:0
Битовая глубина : 8 бит
Тип развёртки : Прогрессивная
Бит/(Пиксели*Кадры) : 0.257
Размер потока : 2,04 Гбайт (88%)
Заголовок : Зловещие мертвецы (1981)
Библиотека кодирования : x264 core 129 r2245 bc13772
Настройки программы : cabac=1 / ref=10 / deblock=1:-3:-3 / analyse=0x3:0x133 / me=umh / subme=10 / psy=1 / psy_rd=1.00:0.10 / mixed_ref=1 / me_range=48 / chroma_me=1 / trellis=2 / 8x8dct=1 / cqm=0 / deadzone=21,11 / fast_pskip=0 / chroma_qp_offset=-3 / threads=6 / lookahead_threads=1 / sliced_threads=0 / nr=0 / decimate=1 / interlaced=0 / bluray_compat=0 / constrained_intra=0 / bframes=5 / b_pyramid=2 / b_adapt=2 / b_bias=0 / direct=3 / weightb=1 / open_gop=0 / weightp=2 / keyint=240 / keyint_min=22 / scenecut=40 / intra_refresh=0 / rc_lookahead=40 / rc=2pass / mbtree=1 / bitrate=3500 / ratetol=1.0 / qcomp=0.60 / qpmin=10 / qpmax=51 / qpstep=4 / cplxblur=20.0 / qblur=0.5 / ip_ratio=1.40 / aq=1:1.00
Язык : English
Аудио
Идентификатор : 2
Формат : AC-3
Формат/Информация : Audio Coding 3
Расширение режима : CM (complete main)
Параметр Endianness формата : Big
Идентификатор кодека : A_AC3
Продолжительность : 1 ч. 25 м.
Вид битрейта : Постоянный
Битрейт : 384 Кбит/сек
Каналы : 6 каналов
Расположение каналов : Front: L C R, Side: L R, LFE
Частота : 48,0 КГц
Битовая глубина : 16 бит
Метод сжатия : С потерями
Размер потока : 235 Мбайт (10%)
Заголовок : AC3 (Многоголосный)
Язык : Russian
-Скриншоты:

Зловещие мертвецы 2 / Evil Dead II

-[sh]Зловещие мертвецы 2 / Evil Dead II (1987) BDRip [H.264][/sh]- Русское название: Зловещие мертвецы 2
Оригинальное название: Evil Dead II
Год выпуска: 1987
Страна: США
Жанр: Ужасы, Фэнтези-Режиссер: Сэм Рэйми
Продюсер: Роберт Дж. Тейперт, Брюс Кэмпбелл, Алекс Де Бенедетти
В ролях: Брюс Кэмпбелл, Сара Берри, Дэн Хикс, Кэсси ДеПайва, Тед Рейми, Дениз Бикслер, Ричард Домейер, Джон Пикс, Лу Хэнкок, Сноуи Уинтерс-Описание фильма: Эш и его девушка Линда приезжают в маленький домик, затерянный в лесах, чтобы романтично провести время. Пока Линда приводила себя в порядок в одной из комнат, Эш принялся осматривать дом и наткнулся на старинную книгу "Некрономикон" и магнитофон, принадлежавшие бывшему владельцу - профессору археологии. Запустив пленку, Эш услышал странные заклинания, записанные профессором, а в лесу пробудился злой дух, превративший Линду в демона.- -Бюджет: $3 500 000
Сборы в США: $5 923 044
Производство: Renaissance Pictures
Дата мировой премьеры: 13 марта 1987-Продолжительность: 01:24:16
Перевод: Профессиональный (Многоголосый закадровый) Киномания
Субтитры: Отсутствуют-Качество видео: BDRip
Формат: MKV
Видео: MPEG-4 AVC/H.264, 3500 Kbps, 1024 x 554
Аудио: Русский AC3 5.1, 384 Kbps, 48.0 KHz (Многоголосый закадровый) Киномания-

Blu-ray

MediaInfo

Общее
Полное имя : The Evil Dead II.mkv
Формат : Matroska
Версия формата : Version 1
Размер файла : 2,29 Гбайт
Продолжительность : 1 ч. 24 м.
Общий поток : 3886 Кбит/сек
Дата кодирования : UTC 2013-02-23 09:09:20
Программа кодирования : mkvmerge v2.4.1 ('Use Me') built on Dec 5 2008 18:30:05
Библиотека кодирования : libebml v0.7.7 + libmatroska v0.8.1
Видео
Идентификатор : 1
Формат : AVC
Формат/Информация : Advanced Video Codec
Профиль формата : High@L4.1
Параметр CABAC формата : Да
Параметр ReFrames формата : 10 кадров
Идентификатор кодека : V_MPEG4/ISO/AVC
Продолжительность : 1 ч. 24 м.
Битрейт : 3500 Кбит/сек
Ширина : 1024 пикселя
Высота : 554 пикселя
Соотношение сторон : 1,85:1
Режим частоты кадров : Постоянный
Частота кадров : 23,976 кадра/сек
Цветовое пространство : YUV
Субдискретизация насыщенности : 4:2:0
Битовая глубина : 8 бит
Тип развёртки : Прогрессивная
Бит/(Пиксели*Кадры) : 0.257
Размер потока : 2,02 Гбайт (88%)
Заголовок : Зловещие мертвецы 2 (1987)
Библиотека кодирования : x264 core 129 r2245 bc13772
Настройки программы : cabac=1 / ref=10 / deblock=1:-3:-3 / analyse=0x3:0x133 / me=umh / subme=10 / psy=1 / psy_rd=1.00:0.10 / mixed_ref=1 / me_range=48 / chroma_me=1 / trellis=2 / 8x8dct=1 / cqm=0 / deadzone=21,11 / fast_pskip=0 / chroma_qp_offset=-3 / threads=6 / lookahead_threads=1 / sliced_threads=0 / nr=0 / decimate=1 / interlaced=0 / bluray_compat=0 / constrained_intra=0 / bframes=5 / b_pyramid=2 / b_adapt=2 / b_bias=0 / direct=3 / weightb=1 / open_gop=0 / weightp=2 / keyint=240 / keyint_min=22 / scenecut=40 / intra_refresh=0 / rc_lookahead=40 / rc=2pass / mbtree=1 / bitrate=3500 / ratetol=1.0 / qcomp=0.60 / qpmin=10 / qpmax=51 / qpstep=4 / cplxblur=20.0 / qblur=0.5 / ip_ratio=1.40 / aq=1:1.00
Язык : English
Аудио
Идентификатор : 2
Формат : AC-3
Формат/Информация : Audio Coding 3
Расширение режима : CM (complete main)
Параметр Endianness формата : Big
Идентификатор кодека : A_AC3
Продолжительность : 1 ч. 24 м.
Вид битрейта : Постоянный
Битрейт : 384 Кбит/сек
Каналы : 6 каналов
Расположение каналов : Front: L C R, Side: L R, LFE
Частота : 48,0 КГц
Битовая глубина : 16 бит
Метод сжатия : С потерями
Размер потока : 231 Мбайт (10%)
Заголовок : AC3 (Многоголосный)
Язык : Russian
-Скриншоты:

Зловещие мертвецы 3: Армия тьмы / Army of Darkness

-[sh]Зловещие мертвецы 3: Армия тьмы / Army of Darkness (1992) BDRip [H.264][/sh]- Русское название: Зловещие мертвецы 3: Армия тьмы
Оригинальное название: Army of Darkness
Год выпуска: 1992
Страна: США
Жанр: Ужасы, Фэнтези-Режиссер: Сэм Рэйми
Продюсер: Роберт Дж. Тейперт, Брюс Кэмпбелл, Дино Де Лаурентис
В ролях: Брюс Кэмпбелл, Эмбет Дэвитц, Антон Гилберт, Йен Эберкромби, Ричард Гров, Тимоти Патрик Куилл, Майкл Эрл Рейд, Бриджет Фонда, Патриция Таллман, Тед Рейми-Описание фильма: Благодаря козням сил Зла герой фильма, вооруженный бензопилой и дробовиком, попадает в Англию времен короля Артура. Ему предстоит сразиться с армией мертвецов, возглавляемой безжалостным демоном - его собственным двойником! Единственный способ вернуться домой - найти таинственную древнюю книгу "Некрономикон", с помощью которой у него появится шанс отправить легионы мертвецов в ад навсегда.- -Бюджет: $13 000 000
Сборы в США: $11 502 976
Производство: Renaissance Pictures
Дата мировой премьеры: 9 октября 1992-Продолжительность: 01:20:54
Перевод: Профессиональный (Многоголосый закадровый) Киномания
Субтитры: Отсутствуют-Качество видео: BDRip
Формат: MKV
Видео: MPEG-4 AVC/H.264, 3500 Kbps, 1024 x 554
Аудио: Русский AC3 5.1, 384 Kbps, 48.0 KHz (Многоголосый закадровый) Киномания-

Blu-ray

MediaInfo

Общее
Полное имя : The Evil Dead III.mkv
Формат : Matroska
Версия формата : Version 1
Размер файла : 2,19 Гбайт
Продолжительность : 1 ч. 20 м.
Общий поток : 3883 Кбит/сек
Дата кодирования : UTC 2013-02-25 06:04:58
Программа кодирования : mkvmerge v2.4.1 ('Use Me') built on Dec 5 2008 18:30:05
Библиотека кодирования : libebml v0.7.7 + libmatroska v0.8.1
Видео
Идентификатор : 1
Формат : AVC
Формат/Информация : Advanced Video Codec
Профиль формата : High@L4.1
Параметр CABAC формата : Да
Параметр ReFrames формата : 10 кадров
Идентификатор кодека : V_MPEG4/ISO/AVC
Продолжительность : 1 ч. 20 м.
Битрейт : 3500 Кбит/сек
Ширина : 1024 пикселя
Высота : 554 пикселя
Соотношение сторон : 1,85:1
Режим частоты кадров : Постоянный
Частота кадров : 23,976 кадра/сек
Цветовое пространство : YUV
Субдискретизация насыщенности : 4:2:0
Битовая глубина : 8 бит
Тип развёртки : Прогрессивная
Бит/(Пиксели*Кадры) : 0.257
Размер потока : 1,93 Гбайт (88%)
Заголовок : Зловещие мертвецы 3: Армия тьмы (1992)
Библиотека кодирования : x264 core 129 r2245 bc13772
Настройки программы : cabac=1 / ref=10 / deblock=1:-3:-3 / analyse=0x3:0x133 / me=umh / subme=10 / psy=1 / psy_rd=1.00:0.10 / mixed_ref=1 / me_range=48 / chroma_me=1 / trellis=2 / 8x8dct=1 / cqm=0 / deadzone=21,11 / fast_pskip=0 / chroma_qp_offset=-3 / threads=6 / lookahead_threads=1 / sliced_threads=0 / nr=0 / decimate=1 / interlaced=0 / bluray_compat=0 / constrained_intra=0 / bframes=5 / b_pyramid=2 / b_adapt=2 / b_bias=0 / direct=3 / weightb=1 / open_gop=0 / weightp=2 / keyint=240 / keyint_min=22 / scenecut=40 / intra_refresh=0 / rc_lookahead=40 / rc=2pass / mbtree=1 / bitrate=3500 / ratetol=1.0 / qcomp=0.60 / qpmin=10 / qpmax=51 / qpstep=4 / cplxblur=20.0 / qblur=0.5 / ip_ratio=1.40 / aq=1:1.00
Язык : English
Аудио
Идентификатор : 2
Формат : AC-3
Формат/Информация : Audio Coding 3
Расширение режима : CM (complete main)
Параметр Endianness формата : Big
Идентификатор кодека : A_AC3
Продолжительность : 1 ч. 20 м.
Вид битрейта : Постоянный
Битрейт : 384 Кбит/сек
Каналы : 6 каналов
Расположение каналов : Front: L C R, Side: L R, LFE
Частота : 48,0 КГц
Битовая глубина : 16 бит
Метод сжатия : С потерями
Размер потока : 222 Мбайт (10%)
Заголовок : AC3 (Многоголосный)
Язык : Russian
-Скриншоты:

[Цитировать]



Показать сообщения:    

Текущее время: 10-Дек 23:28

Часовой пояс: UTC + 3


Вы не можете начинать темы
Вы не можете отвечать на сообщения
Вы не можете редактировать свои сообщения
Вы не можете удалять свои сообщения
Вы не можете голосовать в опросах
Вы не можете прикреплять файлы к сообщениям
Вы не можете скачивать файлы

!ВНИМАНИЕ!
Сайт не предоставляет электронные версии произведений, а занимается лишь коллекционированием и каталогизацией ссылок, присылаемых и публикуемых на форуме нашими читателями. Если вы являетесь правообладателем какого-либо представленного материала и не желаете, чтобы ссылка на него находилась в нашем каталоге, свяжитесь с нами, и мы незамедлительно удалим ее. Файлы для обмена на трекере предоставлены пользователями сайта, и администрация не несет ответственности за их содержание. Просьба не заливать файлы, защищенные авторскими правами, а также файлы нелегального содержания!