[ Сегодня идет свободное скачивание без начисления Download ]


Статистика раздачи
Нет
 
   
 
Top  
 
 
- КВН-2013. Высшая лига. 1/8 финала. Вторая игра (2013.03.03) HDTVRip [H.264] - Режиссер / Телекомпания: Первый канал HD
Русское название: КВН
Год выпуска: 2013
Жанр: Телепередача
Ведущий: Александр Масляков.
Описание:
Что такое КВН, знают, без сомнения, все. В КВН играют во всем мире, это прежде всего молодежная игра. Постоянные конкурсные задания: "Визитная карточка", "Разминка", "Конкурс капитанов", "Музыкальный конкурс", "Домашнее задание". Игру команд оценивает профессиональное жюри — люди, у которых с чувством юмора все в порядке, многие из них раньше сами играли в КВН. Среди членов жюри были Константин Эрнст, Леонид Парфенов, Юлий Гусман, Леонид Ярмольник, Валдис Пельш, Сергей Шолохов, Геннадий Хазанов и другие. Кроме самих игр проводятся ежегодные встречи: фестиваль команд КВН (с 1990 г., семь раз фестиваль проходил в г.Сочи), музыкальный фестиваль КВН, летний кубок КВН, международные товарищеские игры в КВН. Сборная КВН играет со сборными других стран. Уже состоялись игры между сборной КВН и сборными Америки, Австралии, Израиля... Игра в КВН для многих становится профессией, а многие благодаря игре связывают жизнь с искусством. Из КВН "вышли": Леонид Якубович, Михаил Марфин, Татьяна Лазарева, Олег Филимонов, Юлий Гусман и многие другие.
Продолжительность: 01:52:55
Видеокодек: MPEG-4 (AVC)
Битрейт видео: ~1983 kb/s
Размер кадра: 1024 x 576
Качество видео: HDTVRip
Аудио: AC3, 2ch., 384 kb/s

Команды. Подробности. Жюри.

Жюри: Михаил Галустян, Гарик Сукачев, Юлий Гусман, Михаил Ефремов, Дмитрий Нагиев, Валдис Пельш
Команды:
Евразы-РостГМУ Ростов-на-Дону
Азия MIX Бишкек
Кефир Нягань
Сборная Физтеха Долгопрудный
ГородЪ ПятигорскЪ Пятигорск
Описание:
Тема сезона: КВН уже не тот
Тема игры: Юг
Визитка: Дорога к югу
Азия MIX
- самый дружелюбный народ
- министр культуры и боксы Кыргызстана
- кыргызская милиция
- часть команды не пройдёт
Сборная Евразийского института
- выбор девушки из зала
- проверка актёрских данных
- в кабинете генподрядчика страительства стадиона "Зенит-Арена"
- в школе стюардов
- подарок
Сборная Физтеха
- о физиках
- на вечеринке
- компьютерная игра "Госдума РФ"
Кефир
- представление команды заново
- усиление команды
- давно вопрос Особи
- разборки с женщиной
- песня про Сердюкова
ГородЪ ПятигорскЪ
- кавказские танцы
- мужской протест
- в гримёрке ТЮЗа
- бараны
- приглашение горца в команду
Триатлон:
Разминочная часть конкурса на этот раз представляет собой вопросы команд друг к другу, ответами на которые команды подготовили зал ко второй, биатлонной части конкурса, в которой стили команд ярко отразились на самих шутках.
Музыкальное Домашнее задание Дикий отдых
Азия MIX
- на корпоративном вечере у Чингизхана
Сборная Физтеха
- виды и классификация дикого отдыха физтеха
Сборная Евразийского института
- история любви
Кефир
- дикий отдых Алисы в зазеркалье
ГородЪ ПятигорскЪ
- "Кавказская пленница" в путаном пересказе Юлика

Результаты игры. Не смотреть!!!

Городъ Пятигорскъ – 11.3, Сборная Физтеха – 11.1, Кефир – 10.7, Азия микс – 10.7, Евразы – 10.0

MediaInfo

Формат : Matroska
Версия формата : Version 2
Размер файла : 1,87 Гбайт
Продолжительность : 1 ч. 52 м.
Общий поток : 2369 Кбит/сек
Дата кодирования : UTC 2013-03-09 07:11:04
Программа кодирования : mkvmerge v5.8.0 ('No Sleep / Pillow') built on Sep 2 2012 15:37:04
Библиотека кодирования : libebml v1.2.3 + libmatroska v1.3.0
Видео
Идентификатор : 1
Формат : AVC
Формат/Информация : Advanced Video Codec
Профиль формата : High@L5.1
Параметр CABAC формата : Да
Параметр ReFrames формата : 8 кадров
Идентификатор кодека : V_MPEG4/ISO/AVC
Продолжительность : 1 ч. 52 м.
Битрейт : 1983 Кбит/сек
Ширина : 1024 пикселя
Высота : 576 пикселей
Соотношение сторон : 16:9
Частота кадров : 25,000 кадров/сек
Цветовое пространство : YUV
Субдискретизация насыщенности : 4:2:0
Битовая глубина : 8 бит
Тип развёртки : Прогрессивная
Бит/(Пиксели*Кадры) : 0.134
Размер потока : 1,53 Гбайт (82%)
Библиотека кодирования : x264 core 130 r2273 b3065e6
Настройки программы : cabac=1 / ref=8 / deblock=1:-2:-2 / analyse=0x3:0x133 / me=umh / subme=9 / psy=1 / psy_rd=1.00:0.00 / mixed_ref=1 / me_range=32 / chroma_me=1 / trellis=2 / 8x8dct=1 / cqm=0 / deadzone=21,11 / fast_pskip=1 / chroma_qp_offset=-2 / threads=4 / lookahead_threads=1 / sliced_threads=0 / nr=0 / decimate=1 / interlaced=0 / bluray_compat=0 / constrained_intra=0 / bframes=8 / b_pyramid=2 / b_adapt=2 / b_bias=0 / direct=1 / weightb=1 / open_gop=0 / weightp=2 / keyint=250 / keyint_min=25 / scenecut=40 / intra_refresh=0 / rc_lookahead=40 / rc=2pass / mbtree=1 / bitrate=1983 / ratetol=1.0 / qcomp=0.60 / qpmin=10 / qpmax=51 / qpstep=4 / cplxblur=20.0 / qblur=0.5 / ip_ratio=1.40 / aq=1:1.00
Default : Да
Forced : Нет
Аудио
Идентификатор : 2
Формат : AC-3
Формат/Информация : Audio Coding 3
Расширение режима : CM (complete main)
Идентификатор кодека : A_AC3
Продолжительность : 1 ч. 52 м.
Вид битрейта : Постоянный
Битрейт : 384 Кбит/сек
Каналы : 2 канала
Расположение каналов : Front: L R
Частота : 48,0 КГц
Битовая глубина : 16 бит
Метод сжатия : С потерями
Размер потока : 310 Мбайт (16%)
Язык : Russian
Default : Да
Forced : Нет
Скриншоты:

[Цитировать]



Показать сообщения:    

Текущее время: 11-Дек 03:21

Часовой пояс: UTC + 3


Вы не можете начинать темы
Вы не можете отвечать на сообщения
Вы не можете редактировать свои сообщения
Вы не можете удалять свои сообщения
Вы не можете голосовать в опросах
Вы не можете прикреплять файлы к сообщениям
Вы не можете скачивать файлы

!ВНИМАНИЕ!
Сайт не предоставляет электронные версии произведений, а занимается лишь коллекционированием и каталогизацией ссылок, присылаемых и публикуемых на форуме нашими читателями. Если вы являетесь правообладателем какого-либо представленного материала и не желаете, чтобы ссылка на него находилась в нашем каталоге, свяжитесь с нами, и мы незамедлительно удалим ее. Файлы для обмена на трекере предоставлены пользователями сайта, и администрация не несет ответственности за их содержание. Просьба не заливать файлы, защищенные авторскими правами, а также файлы нелегального содержания!