[ Сегодня идет свободное скачивание без начисления Download ]


Статистика раздачи
Нет
 
   
 
Top  
 
 
- КВН-2013. Высшая лига. 1/8 финала. Первая игра (2013.02.24) HDTVRip [H.264] - Режиссер / Телекомпания: Первый канал HD
Русское название: КВН
Год выпуска: 2013
Жанр: Телепередача
Ведущий: Александр Масляков.
Описание:
Что такое КВН, знают, без сомнения, все. В КВН играют во всем мире, это прежде всего молодежная игра. Постоянные конкурсные задания: "Визитная карточка", "Разминка", "Конкурс капитанов", "Музыкальный конкурс", "Домашнее задание". Игру команд оценивает профессиональное жюри — люди, у которых с чувством юмора все в порядке, многие из них раньше сами играли в КВН. Среди членов жюри были Константин Эрнст, Леонид Парфенов, Юлий Гусман, Леонид Ярмольник, Валдис Пельш, Сергей Шолохов, Геннадий Хазанов и другие. Кроме самих игр проводятся ежегодные встречи: фестиваль команд КВН (с 1990 г., семь раз фестиваль проходил в г.Сочи), музыкальный фестиваль КВН, летний кубок КВН, международные товарищеские игры в КВН. Сборная КВН играет со сборными других стран. Уже состоялись игры между сборной КВН и сборными Америки, Австралии, Израиля... Игра в КВН для многих становится профессией, а многие благодаря игре связывают жизнь с искусством. Из КВН "вышли": Леонид Якубович, Михаил Марфин, Татьяна Лазарева, Олег Филимонов, Юлий Гусман и многие другие.
Продолжительность: 01:49:12
Видеокодек: MPEG-4 (AVC)
Битрейт видео: ~2062 kb/s
Размер кадра: 1024 x 576
Качество видео: HDTVRip
Аудио: AC3, 2ch., 384 kb/s

Команды. Подробности. Жюри.

Жюри: Гарик Сукачев, Валдис Пельш, Дмитрий Нагиев, Михаил Ефремов, Юлий Гусман, Константин Эрнст
Команды:
Днепр: Сборная Днепропетровской области;
Сборная СНГ по вольной борьбе: Сургут;
Ананас: Вязьма;
БГУ: Минск;
Сборная Камызякского края по КВНу: Астраханская область.
Описание:
Тема сезона: КВН уже не тот
Тема игры: Север
Визитка: Абсолютный ноль
Ананас
- усиление перед новым сезоном
- в самолёте Москва-Анталия сразу после duty-free
- молодая пара из Вязьмы элитном магазине одежды
- ВВП покидает Красную Поляну после проверки
БГУ
- вручение аттестатов в школе
- жизненные ситуации
- пианист остался ночью дома один
- в белорусском ресторане
- на собеседовании в очень серьёзную компанию
Сборная СНГ по вольной борьбе
- представление команды
- борцы пришли грабить банк
- борцы на реалити-шоу
- борцы на передаче "Что? Где? Когда?"
Днепр
- разморозка Игоря
- Игорь и Лена 14 февраля
- ездовые хаски на привале
- во дворе спального района в морозный день
Сборная Камызякского края
- в парикмахерской
- в Камызякском шахматном клубе
- в Камызякском суде
- в Камызякской районной поликлинике
Триатлон
Разминочная часть конкурса на этот раз представляет собой вопросы команд друг к другу, ответами на которые команды подготовили зал ко второй, биатлонной части конкурса, в которой стили команд ярко отразились на самих шутках.
Музыкальное Домашнее задание Северное сияние
Сборная Камызякского края
- научно-познавательный спектакль "В поисках северного сияния"
БГУ
- вечеринка на съёмной квартире после предпоследнего замечания
- как бы выглядела Беларусь после переезда туда мировых звёзд
Ананас
- Игорь Корнелюк собирает старую гвардию для самого лучшего концерта
- о северном сиянии
Сборная СНГ по вольной борьбе
- в кафе "Северное сияние"
Днепр
- поход на север
- муж обращается к жене с помощью друзей
- Игорь и Лена разбирают холодильник
- песня о секрете зрительской улыбки

Результаты игры. Не смотреть!!!

Сборная Камызякского края – 11.5, Сборная СНГ по вольной борьбе – 11.2, Днепр – 10.1, Сборная БГУ – 10.0, Ананас – 9.7

MediaInfo

Формат : Matroska
Версия формата : Version 2
Размер файла : 1,87 Гбайт
Продолжительность : 1 ч. 49 м.
Общий поток : 2447 Кбит/сек
Дата кодирования : UTC 2013-03-08 22:22:51
Программа кодирования : mkvmerge v5.8.0 ('No Sleep / Pillow') built on Sep 2 2012 15:37:04
Библиотека кодирования : libebml v1.2.3 + libmatroska v1.3.0
Видео
Идентификатор : 1
Формат : AVC
Формат/Информация : Advanced Video Codec
Профиль формата : [email protected]
Параметр CABAC формата : Да
Параметр ReFrames формата : 8 кадров
Идентификатор кодека : V_MPEG4/ISO/AVC
Продолжительность : 1 ч. 49 м.
Битрейт : 2062 Кбит/сек
Ширина : 1024 пикселя
Высота : 576 пикселей
Соотношение сторон : 16:9
Частота кадров : 25,000 кадров/сек
Цветовое пространство : YUV
Субдискретизация насыщенности : 4:2:0
Битовая глубина : 8 бит
Тип развёртки : Прогрессивная
Бит/(Пиксели*Кадры) : 0.140
Размер потока : 1,54 Гбайт (82%)
Библиотека кодирования : x264 core 130 r2273 b3065e6
Настройки программы : cabac=1 / ref=8 / deblock=1:-2:-2 / analyse=0x3:0x133 / me=umh / subme=9 / psy=1 / psy_rd=1.00:0.00 / mixed_ref=1 / me_range=32 / chroma_me=1 / trellis=2 / 8x8dct=1 / cqm=0 / deadzone=21,11 / fast_pskip=1 / chroma_qp_offset=-2 / threads=4 / lookahead_threads=1 / sliced_threads=0 / nr=0 / decimate=1 / interlaced=0 / bluray_compat=0 / constrained_intra=0 / bframes=8 / b_pyramid=2 / b_adapt=2 / b_bias=0 / direct=1 / weightb=1 / open_gop=0 / weightp=2 / keyint=250 / keyint_min=25 / scenecut=40 / intra_refresh=0 / rc_lookahead=40 / rc=2pass / mbtree=1 / bitrate=2062 / ratetol=1.0 / qcomp=0.60 / qpmin=10 / qpmax=51 / qpstep=4 / cplxblur=20.0 / qblur=0.5 / ip_ratio=1.40 / aq=1:1.00
Default : Да
Forced : Нет
Аудио
Идентификатор : 2
Формат : AC-3
Формат/Информация : Audio Coding 3
Расширение режима : CM (complete main)
Идентификатор кодека : A_AC3
Продолжительность : 1 ч. 49 м.
Вид битрейта : Постоянный
Битрейт : 384 Кбит/сек
Каналы : 2 канала
Расположение каналов : Front: L R
Частота : 48,0 КГц
Битовая глубина : 16 бит
Метод сжатия : С потерями
Размер потока : 300 Мбайт (16%)
Язык : Russian
Default : Да
Forced : Нет
Скриншоты:

[Цитировать]



Показать сообщения:    

Текущее время: 06-Дек 21:00

Часовой пояс: UTC + 3


Вы не можете начинать темы
Вы не можете отвечать на сообщения
Вы не можете редактировать свои сообщения
Вы не можете удалять свои сообщения
Вы не можете голосовать в опросах
Вы не можете прикреплять файлы к сообщениям
Вы не можете скачивать файлы

!ВНИМАНИЕ!
Сайт не предоставляет электронные версии произведений, а занимается лишь коллекционированием и каталогизацией ссылок, присылаемых и публикуемых на форуме нашими читателями. Если вы являетесь правообладателем какого-либо представленного материала и не желаете, чтобы ссылка на него находилась в нашем каталоге, свяжитесь с нами, и мы незамедлительно удалим ее. Файлы для обмена на трекере предоставлены пользователями сайта, и администрация не несет ответственности за их содержание. Просьба не заливать файлы, защищенные авторскими правами, а также файлы нелегального содержания!