[ Сегодня идет свободное скачивание без начисления Download ]


Статистика раздачи
Нет
 
   
 
Top  
 
 
- КВН-2013. Высшая лига. 1/8 финала. Вторая игра (2013.03.03) HDTV [H.264/720p] - Режиссер / Телекомпания: Первый канал HD
Русское название: КВН
Год выпуска: 2013
Жанр: Телепередача
Ведущий: Александр Масляков.
Жюри: Михаил Галустян, Гарик Сукачев, Юлий Гусман, Михаил Ефремов, Дмитрий Нагиев, Валдис Пельш
Описание:
Что такое КВН, знают, без сомнения, все. В КВН играют во всем мире, это прежде всего молодежная игра. Постоянные конкурсные задания: "Визитная карточка", "Разминка", "Конкурс капитанов", "Музыкальный конкурс", "Домашнее задание". Игру команд оценивает профессиональное жюри — люди, у которых с чувством юмора все в порядке, многие из них раньше сами играли в КВН. Среди членов жюри были Константин Эрнст, Леонид Парфенов, Юлий Гусман, Леонид Ярмольник, Валдис Пельш, Сергей Шолохов, Геннадий Хазанов и другие. Кроме самих игр проводятся ежегодные встречи: фестиваль команд КВН (с 1990 г., семь раз фестиваль проходил в г.Сочи), музыкальный фестиваль КВН, летний кубок КВН, международные товарищеские игры в КВН. Сборная КВН играет со сборными других стран. Уже состоялись игры между сборной КВН и сборными Америки, Австралии, Израиля... Игра в КВН для многих становится профессией, а многие благодаря игре связывают жизнь с искусством. Из КВН "вышли": Леонид Якубович, Михаил Марфин, Татьяна Лазарева, Олег Филимонов, Юлий Гусман и многие другие.
Команды:
Евразы-РостГМУ: Ростов-на-Дону
Азия MIX: Бишкек
Кефир: Нягань
Сборная Физтеха: Долгопрудный
ГородЪ ПятигорскЪ: Пятигорск
Продолжительность: 01:52:47
Видеокодек: MPEG-4 (AVC)
Битрейт видео: ~3500 kb/s
Размер кадра: 1280 x 720
Качество видео: HDTV
Аудио: AAC, 2ch., 192 kb/s

Команды. Подробности.

Жюри: Михаил Галустян, Гарик Сукачев, Юлий Гусман, Михаил Ефремов, Дмитрий Нагиев, Валдис Пельш
Команды:
Евразы-РостГМУ Ростов-на-Дону
Азия MIX Бишкек
Кефир Нягань
Сборная Физтеха Долгопрудный
ГородЪ ПятигорскЪ Пятигорск
Описание:
Тема сезона: КВН уже не тот
Тема игры: Юг
Визитка: Дорога к югу
Азия MIX
- самый дружелюбный народ
- министр культуры и боксы Кыргызстана
- кыргызская милиция
- часть команды не пройдёт
Сборная Евразийского института
- выбор девушки из зала
- проверка актёрских данных
- в кабинете генподрядчика страительства стадиона "Зенит-Арена"
- в школе стюардов
- подарок
Сборная Физтеха
- о физиках
- на вечеринке
- компьютерная игра "Госдума РФ"
Кефир
- представление команды заново
- усиление команды
- давно вопрос Особи
- разборки с женщиной
- песня про Сердюкова
ГородЪ ПятигорскЪ
- кавказские танцы
- мужской протест
- в гримёрке ТЮЗа
- бараны
- приглашение горца в команду
Триатлон:
Разминочная часть конкурса на этот раз представляет собой вопросы команд друг к другу, ответами на которые команды подготовили зал ко второй, биатлонной части конкурса, в которой стили команд ярко отразились на самих шутках.
Музыкальное Домашнее задание Дикий отдых
Азия MIX
- на корпоративном вечере у Чингизхана
Сборная Физтеха
- виды и классификация дикого отдыха физтеха
Сборная Евразийского института
- история любви
Кефир
- дикий отдых Алисы в зазеркалье
ГородЪ ПятигорскЪ
- "Кавказская пленница" в путаном пересказе Юлика

Результаты игры. Не смотреть!!!

Городъ Пятигорскъ – 11.3, Сборная Физтеха – 11.1, Кефир – 10.7, Азия микс – 10.7, Евразы – 10.0

MediaInfo

Формат : MPEG-4
Профиль формата : Base Media / Version 2
Идентификатор кодека : mp42
Размер файла : 2,91 Гбайт
Продолжительность : 1 ч. 52 м.
Режим общего битрейта : Переменный
Общий поток : 3696 Кбит/сек
Программа кодирования : TMPGEnc Video Mastering Works 5 Version. 5.0.6.38
Видео
Идентификатор : 2
Формат : AVC
Формат/Информация : Advanced Video Codec
Профиль формата : High@L4.1
Параметр CABAC формата : Нет
Параметр ReFrames формата : 2 кадра
Идентификатор кодека : avc1
Идентификатор кодека/Информация : Advanced Video Coding
Продолжительность : 1 ч. 52 м.
Вид битрейта : Постоянный
Битрейт : 3500 Кбит/сек
Ширина : 1280 пикселей
Высота : 720 пикселей
Соотношение сторон : 16:9
Режим частоты кадров : Постоянный
Частота кадров : 30,000 кадров/сек
Цветовое пространство : YUV
Субдискретизация насыщенности : 4:2:0
Битовая глубина : 8 бит
Тип развёртки : Прогрессивная
Бит/(Пиксели*Кадры) : 0.127
Размер потока : 2,76 Гбайт (95%)
Аудио
Идентификатор : 1
Формат : AAC
Формат/Информация : Advanced Audio Codec
Профиль формата : Main
Идентификатор кодека : 40
Продолжительность : 1 ч. 52 м.
Вид битрейта : Переменный
Битрейт : 192 Кбит/сек
Максимальный битрейт : 576 Кбит/сек
Каналы : 2 канала
Расположение каналов : Front: L R
Частота : 48,0 КГц
Метод сжатия : С потерями
Размер потока : 155 Мбайт (5%)
Скриншоты:

[Цитировать]



Показать сообщения:    

Текущее время: 11-Дек 07:10

Часовой пояс: UTC + 3


Вы не можете начинать темы
Вы не можете отвечать на сообщения
Вы не можете редактировать свои сообщения
Вы не можете удалять свои сообщения
Вы не можете голосовать в опросах
Вы не можете прикреплять файлы к сообщениям
Вы не можете скачивать файлы

!ВНИМАНИЕ!
Сайт не предоставляет электронные версии произведений, а занимается лишь коллекционированием и каталогизацией ссылок, присылаемых и публикуемых на форуме нашими читателями. Если вы являетесь правообладателем какого-либо представленного материала и не желаете, чтобы ссылка на него находилась в нашем каталоге, свяжитесь с нами, и мы незамедлительно удалим ее. Файлы для обмена на трекере предоставлены пользователями сайта, и администрация не несет ответственности за их содержание. Просьба не заливать файлы, защищенные авторскими правами, а также файлы нелегального содержания!