[ Сегодня идет свободное скачивание без начисления Download ]


Статистика раздачи
Нет
 
   
 
Top  
 
 
- КВН-2013. Высшая лига. 1/8 финала. Вторая игра (2013.03.03) HDTV [H.264/1080i] - Режиссер / Телекомпания: Первый канал HD
Русское название: КВН
Год выпуска: 2013
Жанр: Телепередача
Ведущий: Александр Масляков.
Жюри: Михаил Галустян, Гарик Сукачев, Юлий Гусман, Михаил Ефремов, Дмитрий Нагиев, Валдис Пельш
Описание:
Что такое КВН, знают, без сомнения, все. В КВН играют во всем мире, это прежде всего молодежная игра. Постоянные конкурсные задания: "Визитная карточка", "Разминка", "Конкурс капитанов", "Музыкальный конкурс", "Домашнее задание". Игру команд оценивает профессиональное жюри — люди, у которых с чувством юмора все в порядке, многие из них раньше сами играли в КВН. Среди членов жюри были Константин Эрнст, Леонид Парфенов, Юлий Гусман, Леонид Ярмольник, Валдис Пельш, Сергей Шолохов, Геннадий Хазанов и другие. Кроме самих игр проводятся ежегодные встречи: фестиваль команд КВН (с 1990 г., семь раз фестиваль проходил в г.Сочи), музыкальный фестиваль КВН, летний кубок КВН, международные товарищеские игры в КВН. Сборная КВН играет со сборными других стран. Уже состоялись игры между сборной КВН и сборными Америки, Австралии, Израиля... Игра в КВН для многих становится профессией, а многие благодаря игре связывают жизнь с искусством. Из КВН "вышли": Леонид Якубович, Михаил Марфин, Татьяна Лазарева, Олег Филимонов, Юлий Гусман и многие другие.
Команды:
Евразы-РостГМУ: Ростов-на-Дону
Азия MIX: Бишкек
Кефир: Нягань
Сборная Физтеха: Долгопрудный
ГородЪ ПятигорскЪ: Пятигорск
Продолжительность: 01:52:12
Видеокодек: MPEG-4 (AVC)
Битрейт видео: ~7877 kb/s
Размер кадра: 1920 x 1080
Качество видео: HDTV
Аудио 1: MP2, 2ch., 192 kb/s
Аудио 2: AC3, 2ch., 384 kb/s

Команды. Подробности.

Жюри: Михаил Галустян, Гарик Сукачев, Юлий Гусман, Михаил Ефремов, Дмитрий Нагиев, Валдис Пельш
Команды:
Евразы-РостГМУ Ростов-на-Дону
Азия MIX Бишкек
Кефир Нягань
Сборная Физтеха Долгопрудный
ГородЪ ПятигорскЪ Пятигорск
Описание:
Тема сезона: КВН уже не тот
Тема игры: Юг
Визитка: Дорога к югу
Азия MIX
- самый дружелюбный народ
- министр культуры и боксы Кыргызстана
- кыргызская милиция
- часть команды не пройдёт
Сборная Евразийского института
- выбор девушки из зала
- проверка актёрских данных
- в кабинете генподрядчика страительства стадиона "Зенит-Арена"
- в школе стюардов
- подарок
Сборная Физтеха
- о физиках
- на вечеринке
- компьютерная игра "Госдума РФ"
Кефир
- представление команды заново
- усиление команды
- давно вопрос Особи
- разборки с женщиной
- песня про Сердюкова
ГородЪ ПятигорскЪ
- кавказские танцы
- мужской протест
- в гримёрке ТЮЗа
- бараны
- приглашение горца в команду
Триатлон:
Разминочная часть конкурса на этот раз представляет собой вопросы команд друг к другу, ответами на которые команды подготовили зал ко второй, биатлонной части конкурса, в которой стили команд ярко отразились на самих шутках.
Музыкальное Домашнее задание Дикий отдых
Азия MIX
- на корпоративном вечере у Чингизхана
Сборная Физтеха
- виды и классификация дикого отдыха физтеха
Сборная Евразийского института
- история любви
Кефир
- дикий отдых Алисы в зазеркалье
ГородЪ ПятигорскЪ
- "Кавказская пленница" в путаном пересказе Юлика

Результаты игры. Не смотреть!!!

Городъ Пятигорскъ – 11.3, Сборная Физтеха – 11.1, Кефир – 10.7, Азия микс – 10.7, Евразы – 10.0

MediaInfo

Формат : MPEG-TS
Размер файла : 7,02 Гбайт
Продолжительность : 1 ч. 52 м.
Общий поток : 8899 Кбит/сек
Видео
Идентификатор : 2931 (0xB73)
Идентификатор меню : 1 (0x1)
Формат : AVC
Формат/Информация : Advanced Video Codec
Профиль формата : High@L4.0
Параметр CABAC формата : Да
Параметр ReFrames формата : 4 кадра
Идентификатор кодека : 27
Продолжительность : 1 ч. 52 м.
Битрейт : 7877 Кбит/сек
Ширина : 1920 пикселей
Высота : 1080 пикселей
Соотношение сторон : 16:9
Частота кадров : 25,000 кадров/сек
Цветовое пространство : YUV
Субдискретизация насыщенности : 4:2:0
Битовая глубина : 8 бит
Тип развёртки : MBAFF
Бит/(Пиксели*Кадры) : 0.152
Размер потока : 6,21 Гбайт (89%)
Аудио #1
Идентификатор : 2932 (0xB74)
Идентификатор меню : 1 (0x1)
Формат : MPEG Audio
Версия формата : Version 1
Профиль формата : Layer 2
Идентификатор кодека : 3
Продолжительность : 1 ч. 52 м.
Вид битрейта : Постоянный
Битрейт : 192 Кбит/сек
Каналы : 2 канала
Частота : 48,0 КГц
Метод сжатия : С потерями
Размер потока : 155 Мбайт (2%)
Язык : Russian
Аудио #2
Идентификатор : 2933 (0xB75)
Идентификатор меню : 1 (0x1)
Формат : AC-3
Формат/Информация : Audio Coding 3
Расширение режима : CM (complete main)
Идентификатор кодека : 129
Продолжительность : 1 ч. 52 м.
Вид битрейта : Постоянный
Битрейт : 384 Кбит/сек
Каналы : 2 канала
Расположение каналов : Front: L R
Частота : 48,0 КГц
Битовая глубина : 16 бит
Метод сжатия : С потерями
Размер потока : 310 Мбайт (4%)
Язык : Russian
Текст
Идентификатор : 2934 (0xB76)-888
Идентификатор меню : 1 (0x1)
Формат : Teletext Subtitle
Язык : Russian
Скриншоты:

[Цитировать]



Показать сообщения:    

Текущее время: 02-Дек 21:04

Часовой пояс: UTC + 3


Вы не можете начинать темы
Вы не можете отвечать на сообщения
Вы не можете редактировать свои сообщения
Вы не можете удалять свои сообщения
Вы не можете голосовать в опросах
Вы не можете прикреплять файлы к сообщениям
Вы не можете скачивать файлы

!ВНИМАНИЕ!
Сайт не предоставляет электронные версии произведений, а занимается лишь коллекционированием и каталогизацией ссылок, присылаемых и публикуемых на форуме нашими читателями. Если вы являетесь правообладателем какого-либо представленного материала и не желаете, чтобы ссылка на него находилась в нашем каталоге, свяжитесь с нами, и мы незамедлительно удалим ее. Файлы для обмена на трекере предоставлены пользователями сайта, и администрация не несет ответственности за их содержание. Просьба не заливать файлы, защищенные авторскими правами, а также файлы нелегального содержания!