[ Сегодня идет свободное скачивание без начисления Download ]


Статистика раздачи
Нет
 
   
 
Top  
 
 
-Морской пехотинец: Тыл / The Marine: Homefront (2013) BDRip [1080p]- Русское название: Морской пехотинец: Тыл
Оригинальное название: The Marine: Homefront
Год выпуска: 2013
Производство: США / WWE Studios
Жанр: Боевик
Перевод: Любительский одноголосый, закадровый [den904]
Субтитры: Вшитые отключаемые
Язык субтитров: Английский
Дата мировой премьеры: 5 марта 2013
Режиссер: Скотт Вайпер
Продюсер: Майкл Луизи, Марк Бьенсток, Крис Фосс
Актеры: Эшли Белл, Нил МакДонаф, Майкл Эклунд, Майк Мизанин, Камилль Салливан, Алекс Паунович, Риз Александр, Джеффри Баллард, Джаред Кисо, Тич Грант
Описание фильма:
Морской пехотинец должен сделать все возможное, чтобы спасти свою похищенную племянницу и остановить атаку радикальной вооруженной группы террористов...-
рейтинг R - лицам до 17 лет обязательно присутствие взрослого
Возраст 16+ -зрителям, достигшим 16 лет-Продолжительность: 01:30:09
Качество видео: BDRip
Видеокодек: MPEG-4 AVC/H.264
Аудиокодек: DTS
Видео: 1920 х 1080, 11,3 Мбит/сек
Aудио #1: Русский: DTS, 5.1, 1509 Кбит/сек |Одноголосый любительский, [den904]|
Aудио #2: Английский: DTS, 5.1, 1509 Кбит/сек
Сэмпл: Скачать

MediaInfo

Формат : Matroska
Версия формата : Version 4 / Version 2
Размер файла : 9,19 Гбайт
Продолжительность : 1 ч. 30 м.
Общий поток : 14,6 Мбит/сек
Дата кодирования : UTC 2013-03-10 15:33:05
Программа кодирования : mkvmerge v6.0.0 ('Coming Up For Air') built on Jan 20 2013 09:52:00
Библиотека кодирования : libebml v1.3.0 + libmatroska v1.4.0
Видео
Идентификатор : 1
Формат : AVC
Формат/Информация : Advanced Video Codec
Профиль формата : High@L4.1
Параметр CABAC формата : Да
Параметр ReFrames формата : 4 кадра
Идентификатор кодека : V_MPEG4/ISO/AVC
Продолжительность : 1 ч. 30 м.
Битрейт : 11,3 Мбит/сек
Ширина : 1920 пикселей
Высота : 1080 пикселей
Соотношение сторон : 16:9
Режим частоты кадров : Постоянный
Частота кадров : 23,976 кадра/сек
Цветовое пространство : YUV
Субдискретизация насыщенности : 4:2:0
Битовая глубина : 8 бит
Тип развёртки : Прогрессивная
Бит/(Пиксели*Кадры) : 0.227
Размер потока : 7,11 Гбайт (77%)
Библиотека кодирования : x264 core 129 r2245 bc13772
Настройки программы : cabac=1 / ref=4 / deblock=1:-3:-3 / analyse=0x3:0x113 / me=tesa / subme=10 / psy=1 / psy_rd=1.10:0.05 / mixed_ref=1 / me_range=24 / chroma_me=1 / trellis=2 / 8x8dct=1 / cqm=0 / deadzone=21,11 / fast_pskip=0 / chroma_qp_offset=-2 / threads=12 / lookahead_threads=2 / sliced_threads=0 / nr=0 / decimate=1 / interlaced=0 / bluray_compat=0 / constrained_intra=0 / bframes=6 / b_pyramid=2 / b_adapt=2 / b_bias=0 / direct=3 / weightb=1 / open_gop=0 / weightp=2 / keyint=240 / keyint_min=22 / scenecut=40 / intra_refresh=0 / rc_lookahead=60 / rc=crf / mbtree=0 / crf=16.0 / qcomp=0.60 / qpmin=0 / qpmax=69 / qpstep=4 / vbv_maxrate=50000 / vbv_bufsize=62500 / crf_max=0.0 / nal_hrd=none / ip_ratio=1.40 / pb_ratio=1.30 / aq=2:0.90
Язык : English
Default : Да
Forced : Нет
Основные цвета : BT.709
Характеристики трансфера : BT.709
Коэффициенты матрицы : BT.709
Аудио #1
Идентификатор : 2
Формат : DTS
Формат/Информация : Digital Theater Systems
Режим : 16
Параметр Endianness формата : Big
Идентификатор кодека : A_DTS
Продолжительность : 1 ч. 30 м.
Вид битрейта : Постоянный
Битрейт : 1510 Кбит/сек
Каналы : 6 каналов
Расположение каналов : Front: L C R, Side: L R, LFE
Частота : 48,0 КГц
Битовая глубина : 24 бит
Метод сжатия : С потерями
Размер потока : 974 Мбайт (10%)
Заголовок : RUS VO (den904)
Язык : Russian
Default : Нет
Forced : Нет
Аудио #2
Идентификатор : 3
Формат : DTS
Формат/Информация : Digital Theater Systems
Режим : 16
Параметр Endianness формата : Big
Идентификатор кодека : A_DTS
Продолжительность : 1 ч. 30 м.
Вид битрейта : Постоянный
Битрейт : 1509 Кбит/сек
Каналы : 6 каналов
Расположение каналов : Front: L C R, Side: L R, LFE
Частота : 48,0 КГц
Битовая глубина : 24 бит
Метод сжатия : С потерями
Размер потока : 973 Мбайт (10%)
Язык : English
Default : Да
Forced : Нет
Текст
Идентификатор : 4
Формат : UTF-8
Идентификатор кодека : S_TEXT/UTF8
Идентификатор кодека/Информация : UTF-8 Plain Text
Язык : English
Default : Да
Forced : Нет
Меню
00:00:00.000 : en:00:00:00.000
00:03:31.795 : en:00:03:31.795
00:05:47.264 : en:00:05:47.264
00:10:29.546 : en:00:10:29.546
00:14:20.651 : en:00:14:20.651
00:17:26.545 : en:00:17:26.545
00:20:30.563 : en:00:20:30.563
00:24:17.456 : en:00:24:17.456
00:30:03.760 : en:00:30:03.760
00:34:44.040 : en:00:34:44.040
00:38:51.371 : en:00:38:51.371
00:42:32.467 : en:00:42:32.467
00:47:29.221 : en:00:47:29.221
00:50:46.335 : en:00:50:46.335
00:53:52.229 : en:00:53:52.229
00:55:40.420 : en:00:55:40.420
00:58:14.032 : en:00:58:14.032
01:00:44.599 : en:01:00:44.599
01:04:22.108 : en:01:04:22.108
01:07:41.516 : en:01:07:41.516
01:11:50.640 : en:01:11:50.640
01:14:28.756 : en:01:14:28.756
01:18:40.132 : en:01:18:40.132
01:22:42.749 : en:01:22:42.749
Скриншоты:

[Цитировать]

Топик был перенесен из форума Новинки кинопроката (HD Video) в форум Зарубежное кино (HD Video)
Bootch



Показать сообщения:    

Текущее время: 02-Дек 22:57

Часовой пояс: UTC + 3


Вы не можете начинать темы
Вы не можете отвечать на сообщения
Вы не можете редактировать свои сообщения
Вы не можете удалять свои сообщения
Вы не можете голосовать в опросах
Вы не можете прикреплять файлы к сообщениям
Вы не можете скачивать файлы

!ВНИМАНИЕ!
Сайт не предоставляет электронные версии произведений, а занимается лишь коллекционированием и каталогизацией ссылок, присылаемых и публикуемых на форуме нашими читателями. Если вы являетесь правообладателем какого-либо представленного материала и не желаете, чтобы ссылка на него находилась в нашем каталоге, свяжитесь с нами, и мы незамедлительно удалим ее. Файлы для обмена на трекере предоставлены пользователями сайта, и администрация не несет ответственности за их содержание. Просьба не заливать файлы, защищенные авторскими правами, а также файлы нелегального содержания!