[ Сегодня идет свободное скачивание без начисления Download ]


Статистика раздачи
Нет
 
   
 
Top  
 
 
Молодые сердца / Love and Honor Страна: США
Жанр: драма, мелодрама
Год выпуска: 2012
Продолжительность: 01:35:54
Перевод: Дублированный (R5)
Cубтитры: русские, английские

Режиссер: Дэнни Муни / Danny Mooney
В ролях: Лайам Хемсворт, Тереза Палмер, Эйми Тигарден, Крис Лоуэлл, Рики Уэйн, Макс Адлер, Уайатт Расселл, Остин Стоуэлл, Лоурен Мэй Шафер, Гордон Майклс, Чейз Мэйсер, Синди Чу, Джулиан Гант, Роджер Каллард, Аполло Бакала, Николас Ритц, Эндрю Фрейдж, Майкл Эллисон, Патрик Поточик, Шарлотта Уббен, Крис Ньюман, Клер Ричардс, Роберт Форте Шеннон III, Хезер Йеребек, Кристин Белл, Рендал Брюс, Мэдисон Конрадис, Сабрина Дунган, Элиз Эдсон, Тиффани Элиз Эдвардс, Джейсон Вазируд-дин, Тим Дженкинс, ДаЖуан Риппи, Стефани Стефани, Моррис Салливан, Мелоди Теодоро-Кертис

Описание:Молодой парень Дэлтон решает тайком сбежать на несколько дней в самоволку, чтобы увидеться с любимой девушкой. К нему присоединяется его друг Микки. В компании беспечных молодых студентов Микки знакомится с соблазнительной, красивой и свободолюбивой Кэндис. Ради нескольких дней с ней Микки готов поставить на карту свою военную карьеру и даже жизнь. Герои никогда не смогут забыть это солнечное, страстное и безумное лето, когда пробуждались молодые сердца…

Качество видео: BDRip (1080p)
Формат видео: MKV
Видео: MPEG-4 AVC, 1920x816, 23.976 fps, 8240 kbps
Аудио 1: Русский (AC3, 48 kHz, 6 ch, 384 kbps)
Аудио 2: Украинский (AC3, 48 kHz, 6 ch, 384 kbps)
Аудио 3: Английский (DTS, 48 kHz, 6 ch, 1510 kbps)
Формат субтитров: softsub (SRT)

MediaInfo

Общее
Полное имя                               : E:\Video\Love.and.Honor.2013.D.BDRip.1080p.mkv
Формат                                   : Matroska
Версия формата                           : Version 2
Размер файла                             : 7,04 Гбайт
Продолжительность                        : 1 ч. 35 м.
Общий поток                              : 10,5 Мбит/сек
Дата кодирования                         : UTC 2013-03-09 12:54:09
Программа кодирования                    : mkvmerge v6.1.0 ('Old Devil') built on Mar  2 2013 14:32:37
Библиотека кодирования                   : libebml v1.3.0 + libmatroska v1.4.0
Видео
Идентификатор                            : 1
Формат                                   : AVC
Формат/Информация                        : Advanced Video Codec
Профиль формата                          : High@L4.1
Параметр CABAC формата                   : Да
Параметр ReFrames формата                : 4 кадра
Идентификатор кодека                     : V_MPEG4/ISO/AVC
Продолжительность                        : 1 ч. 35 м.
Битрейт                                  : 8240 Кбит/сек
Ширина                                   : 1920 пикселей
Высота                                   : 816 пикселей
Соотношение сторон                       : 2,35:1
Режим частоты кадров                     : Постоянный
Частота кадров                           : 23,976 кадра/сек
Цветовое пространство                    : YUV
Субдискретизация насыщенности            : 4:2:0
Битовая глубина                          : 8 бит
Тип развёртки                            : Прогрессивная
Бит/(Пиксели*Кадры)                      : 0.219
Размер потока                            : 5,37 Гбайт (76%)
Библиотека кодирования                   : x264 core 128 r2216 198a7ea
Настройки программы                      : cabac=1 / ref=4 / deblock=1:-3:-3 / analyse=0x3:0x113 / me=umh / subme=10 / psy=1 / psy_rd=1.05:0.10 / mixed_ref=1 / me_range=48 / chroma_me=1 / trellis=2 / 8x8dct=1 / cqm=0 / deadzone=21,11 / fast_pskip=0 / chroma_qp_offset=-2 / threads=12 / lookahead_threads=2 / sliced_threads=0 / nr=0 / decimate=1 / interlaced=0 / bluray_compat=0 / constrained_intra=0 / bframes=6 / b_pyramid=2 / b_adapt=2 / b_bias=0 / direct=3 / weightb=1 / open_gop=0 / weightp=2 / keyint=250 / keyint_min=23 / scenecut=40 / intra_refresh=0 / rc_lookahead=40 / rc=2pass / mbtree=0 / bitrate=8240 / ratetol=2.0 / qcomp=0.70 / qpmin=0 / qpmax=69 / qpstep=4 / cplxblur=20.0 / qblur=0.5 / vbv_maxrate=40000 / vbv_bufsize=30000 / nal_hrd=none / ip_ratio=1.40 / pb_ratio=1.30 / aq=2:1.00
Язык                                     : English
Default                                  : Да
Forced                                   : Нет
Аудио #1
Идентификатор                            : 2
Формат                                   : AC-3
Формат/Информация                        : Audio Coding 3
Расширение режима                        : CM (complete main)
Параметр Endianness формата              : Big
Идентификатор кодека                     : A_AC3
Продолжительность                        : 1 ч. 35 м.
Вид битрейта                             : Постоянный
Битрейт                                  : 384 Кбит/сек
Каналы                                   : 6 каналов
Расположение каналов                     : Front: L C R, Side: L R, LFE
Частота                                  : 48,0 КГц
Битовая глубина                          : 16 бит
Метод сжатия                             : С потерями
Размер потока                            : 263 Мбайт (4%)
Язык                                     : Russian
Default                                  : Да
Forced                                   : Нет
Аудио #2
Идентификатор                            : 3
Формат                                   : AC-3
Формат/Информация                        : Audio Coding 3
Расширение режима                        : CM (complete main)
Параметр Endianness формата              : Big
Идентификатор кодека                     : A_AC3
Продолжительность                        : 1 ч. 35 м.
Вид битрейта                             : Постоянный
Битрейт                                  : 384 Кбит/сек
Каналы                                   : 6 каналов
Расположение каналов                     : Front: L C R, Side: L R, LFE
Частота                                  : 48,0 КГц
Битовая глубина                          : 16 бит
Метод сжатия                             : С потерями
Размер потока                            : 263 Мбайт (4%)
Язык                                     : Ukrainian
Default                                  : Нет
Forced                                   : Нет
Аудио #3
Идентификатор                            : 4
Формат                                   : DTS
Формат/Информация                        : Digital Theater Systems
Режим                                    : 16
Параметр Endianness формата              : Big
Идентификатор кодека                     : A_DTS
Продолжительность                        : 1 ч. 35 м.
Вид битрейта                             : Постоянный
Битрейт                                  : 1509 Кбит/сек
Каналы                                   : 6 каналов
Расположение каналов                     : Front: L C R, Side: L R, LFE
Частота                                  : 48,0 КГц
Битовая глубина                          : 24 бит
Метод сжатия                             : С потерями
Размер потока                            : 1,01 Гбайт (14%)
Язык                                     : English
Default                                  : Нет
Forced                                   : Нет
Текст #1
Идентификатор                            : 5
Формат                                   : UTF-8
Идентификатор кодека                     : S_TEXT/UTF8
Идентификатор кодека/Информация          : UTF-8 Plain Text
Язык                                     : Russian
Default                                  : Нет
Forced                                   : Нет
Текст #2
Идентификатор                            : 6
Формат                                   : UTF-8
Идентификатор кодека                     : S_TEXT/UTF8
Идентификатор кодека/Информация          : UTF-8 Plain Text
Язык                                     : English
Default                                  : Нет
Forced                                   : Нет
x264 [info]: frame I:1185 Avg QP:12.69 size:225160
x264 [info]: frame P:34185 Avg QP:15.00 size: 80800
x264 [info]: frame B:102602 Avg QP:17.15 size: 28132

Скриншоты


[Цитировать]



Показать сообщения:    

Текущее время: 11-Дек 16:43

Часовой пояс: UTC + 3


Вы не можете начинать темы
Вы не можете отвечать на сообщения
Вы не можете редактировать свои сообщения
Вы не можете удалять свои сообщения
Вы не можете голосовать в опросах
Вы не можете прикреплять файлы к сообщениям
Вы не можете скачивать файлы

!ВНИМАНИЕ!
Сайт не предоставляет электронные версии произведений, а занимается лишь коллекционированием и каталогизацией ссылок, присылаемых и публикуемых на форуме нашими читателями. Если вы являетесь правообладателем какого-либо представленного материала и не желаете, чтобы ссылка на него находилась в нашем каталоге, свяжитесь с нами, и мы незамедлительно удалим ее. Файлы для обмена на трекере предоставлены пользователями сайта, и администрация не несет ответственности за их содержание. Просьба не заливать файлы, защищенные авторскими правами, а также файлы нелегального содержания!