[ Сегодня идет свободное скачивание без начисления Download ]


Статистика раздачи
Нет
 
   
 
Top  
 
 
-Жизнь Пи / Life of Pi (2012) BDRip
«Поверь в невозможное»
- Русское название: Жизнь Пи
Оригинальное название: Life of Pi
Год выпуска: 2012
Производство: Fox 2000 Pictures / Haishang Films [США, Тайвань]
Жанр: Приключения, Драма
Перевод: Дублированный [Лицензия]
Субтитры: Вшитые отключаемые
Язык субтитров: Русский, английский (форсированные, полные), украинский, румынский
Дата мировой премьеры: 28 сентября 2012
Дата российской премьеры: 1 января 2013, «20 Век Фокс СНГ»
Дата выхода DVD релиза: 4 апреля 2013, «20 Век Фокс СНГ»
Дата выхода Blu-Ray релиза: 4 апреля 2013, «20 Век Фокс СНГ»
Режиссер: Энг Ли
Продюсер: Энг Ли, Джил Неттер, Дэвид Уомарк, ...
Актеры: Сурадж Шарма, Ирфан Кхан, Рейф Сполл, Табу, Адиль Хуссэйн, Жерар Депардье, Аюш Тандон, Гаутам Белур, Аян Кхан, Мохд Аббас Халили
Описание фильма:
Главный герой фильма оказывается на шлюпке посреди океана в компании неожиданного попутчика — грозного бенгальского тигра.

Продолжительность: 02:06:59
Качество видео: BDRip
Формат 3D: Half OverUnder / Вертикальная анаморфная стереопара
Порядок ракурсов: левый ракурс первый
Видео: MPEG-4 AVC/H.264, 1920x1080, ~16000 kbps
Аудио 1: Русский (DTS, 6 ch, 768 Кбит/с) [Русский - дублированный]
Аудио 2: Украинский (AC3, 6 ch, 448 Кбит/с) [Украинский - дублированный]
Аудио 3: Английский (DTS-ES, 6 ch, 1536 Кбит/с) [Английский - оригинал]
Сэмпл: Скачать

MediaInfo:

General
Unique ID : 239410273371958475605417849381773449963 (0xB41CBDCF8AE86C1CB61572CA226D1AEB)
Complete name : D:\Video\Movies\Life.of.Pi.3D.2012.1080p.BluRay.Half-OU.DTS.x264.Rus.UkrEng.Subs.mkv
Format : Matroska
Format version : Version 2
File size : 16.6 GiB
Duration : 2h 6mn
Overall bit rate : 18.7 Mbps
Movie name : Release for TMD by AlderShot
Encoded date : UTC 2013-03-09 10:45:03
Writing application : mkvmerge v4.9.1 ('Ich will') built on Jul 11 2011 23:53:15
Writing library : libebml v1.2.1 + libmatroska v1.1.1
Video
ID : 1
Format : AVC
Format/Info : Advanced Video Codec
Format profile : High@L4.1
Format settings, CABAC : Yes
Format settings, ReFrames : 4 frames
Codec ID : V_MPEG4/ISO/AVC
Duration : 2h 6mn
Bit rate : 16.0 Mbps
Width : 1 920 pixels
Height : 1 080 pixels
Display aspect ratio : 16:9
Frame rate mode : Constant
Frame rate : 23.976 fps
Color space : YUV
Chroma subsampling : 4:2:0
Bit depth : 8 bits
Scan type : Progressive
Bits/(Pixel*Frame) : 0.322
Stream size : 13.8 GiB (83%)
Writing library : x264 core 129 r2245 bc13772
Encoding settings : cabac=1 / ref=4 / deblock=1:-3:-3 / analyse=0x3:0x113 / me=tesa / subme=11 / psy=1 / psy_rd=0.90:0.05 / mixed_ref=1 / me_range=32 / chroma_me=1 / trellis=2 / 8x8dct=1 / cqm=0 / deadzone=21,11 / fast_pskip=0 / chroma_qp_offset=-3 / threads=12 / lookahead_threads=2 / sliced_threads=0 / nr=0 / decimate=0 / interlaced=0 / bluray_compat=0 / constrained_intra=0 / bframes=6 / b_pyramid=2 / b_adapt=2 / b_bias=0 / direct=3 / weightb=1 / open_gop=0 / weightp=2 / keyint=250 / keyint_min=23 / scenecut=40 / intra_refresh=0 / rc_lookahead=40 / rc=2pass / mbtree=0 / bitrate=16000 / ratetol=1.0 / qcomp=0.60 / qpmin=10 / qpmax=69 / qpstep=4 / cplxblur=20.0 / qblur=0.5 / vbv_maxrate=40000 / vbv_bufsize=30000 / nal_hrd=none / ip_ratio=1.40 / pb_ratio=1.25 / aq=1:0.80
Language : English
Default : Yes
Forced : No
Audio #1
ID : 2
Format : DTS
Format/Info : Digital Theater Systems
Mode : 16
Format settings, Endianness : Big
Codec ID : A_DTS
Duration : 2h 6mn
Bit rate mode : Constant
Bit rate : 768 Kbps
Channel(s) : 6 channels
Channel positions : Front: L C R, Side: L R, LFE
Sampling rate : 48.0 KHz
Bit depth : 24 bits
Compression mode : Lossy
Stream size : 698 MiB (4%)
Title : DTS 5.1 @ 768 kbps - Dub, Blu-ray
Language : Russian
Default : Yes
Forced : Yes
Audio #2
ID : 3
Format : AC-3
Format/Info : Audio Coding 3
Mode extension : CM (complete main)
Format settings, Endianness : Big
Codec ID : A_AC3
Duration : 2h 6mn
Bit rate mode : Constant
Bit rate : 448 Kbps
Channel(s) : 6 channels
Channel positions : Front: L C R, Side: L R, LFE
Sampling rate : 48.0 KHz
Bit depth : 16 bits
Compression mode : Lossy
Stream size : 407 MiB (2%)
Title : DD 5.1 @ 448 kbps - Dub, Blu-ray
Language : Ukrainian
Default : No
Forced : No
Audio #3
ID : 4
Format : DTS
Format/Info : Digital Theater Systems
Format profile : ES
Mode : 16
Format settings, Endianness : Big
Codec ID : A_DTS
Duration : 2h 6mn
Bit rate mode : Constant
Bit rate : 1 509 Kbps
Channel(s) : 6 channels
Channel positions : Front: L C R, Side: L R, LFE
Sampling rate : 48.0 KHz
Bit depth : 24 bits
Compression mode : Lossy
Stream size : 1.34 GiB (8%)
Title : DTS-ES 5.1 @ 1536 kbps
Language : English
Default : No
Forced : No
Text #1
ID : 5
Format : PGS
Muxing mode : zlib
Codec ID : S_HDMV/PGS
Codec ID/Info : The same subtitle format used on BDs/HD-DVDs
Language : Romanian
Default : No
Forced : No
Text #2
ID : 6
Format : UTF-8
Codec ID : S_TEXT/UTF8
Codec ID/Info : UTF-8 Plain Text
Title : Blu-ray
Language : Russian
Default : No
Forced : No
Text #3
ID : 7
Format : UTF-8
Codec ID : S_TEXT/UTF8
Codec ID/Info : UTF-8 Plain Text
Title : Blu-ray
Language : Ukrainian
Default : No
Forced : No
Text #4
ID : 8
Format : UTF-8
Codec ID : S_TEXT/UTF8
Codec ID/Info : UTF-8 Plain Text
Title : Forced
Language : English
Default : No
Forced : No
Text #5
ID : 9
Format : UTF-8
Codec ID : S_TEXT/UTF8
Codec ID/Info : UTF-8 Plain Text
Language : English
Default : No
Forced : No
Menu
00:00:00.000 : en:00:00:00.000
00:03:58.822 : en:00:03:58.822
00:11:13.172 : en:00:11:13.172
00:15:24.924 : en:00:15:24.924
00:21:29.622 : en:00:21:29.622
00:25:44.543 : en:00:25:44.543
00:29:46.827 : en:00:29:46.827
00:31:31.014 : en:00:31:31.014
00:35:34.299 : en:00:35:34.299
00:45:24.347 : en:00:45:24.347
00:50:21.894 : en:00:50:21.894
00:54:13.333 : en:00:54:13.333
00:57:18.352 : en:00:57:18.352
01:00:07.395 : en:01:00:07.395
01:04:12.057 : en:01:04:12.057
01:09:32.085 : en:01:09:32.085
01:11:48.054 : en:01:11:48.054
01:13:34.285 : en:01:13:34.285
01:16:47.561 : en:01:16:47.561
01:21:31.178 : en:01:21:31.178
01:23:10.027 : en:01:23:10.027
01:26:30.852 : en:01:26:30.852
01:31:21.434 : en:01:31:21.434
01:34:13.857 : en:01:34:13.857
01:43:42.675 : en:01:43:42.675
01:47:38.661 : en:01:47:38.661
01:55:20.080 : en:01:55:20.080
01:59:16.274 : en:01:59:16.274

Дополнительно:

Звук:
1) Русский - Дублированный (Лицензия CEE). - спасибо IRONCLUB
2) Украинский - Дублированный ((Лицензия CEE). - спасибо IRONCLUB
Cохранены оригинальные чаптеры как на Blu-ray.
Скриншоты:

Время раздачи: 24/7 - круглосуточно

[Цитировать]



Показать сообщения:    

Текущее время: 08-Дек 12:58

Часовой пояс: UTC + 3


Вы не можете начинать темы
Вы не можете отвечать на сообщения
Вы не можете редактировать свои сообщения
Вы не можете удалять свои сообщения
Вы не можете голосовать в опросах
Вы не можете прикреплять файлы к сообщениям
Вы не можете скачивать файлы

!ВНИМАНИЕ!
Сайт не предоставляет электронные версии произведений, а занимается лишь коллекционированием и каталогизацией ссылок, присылаемых и публикуемых на форуме нашими читателями. Если вы являетесь правообладателем какого-либо представленного материала и не желаете, чтобы ссылка на него находилась в нашем каталоге, свяжитесь с нами, и мы незамедлительно удалим ее. Файлы для обмена на трекере предоставлены пользователями сайта, и администрация не несет ответственности за их содержание. Просьба не заливать файлы, защищенные авторскими правами, а также файлы нелегального содержания!