[ Сегодня идет свободное скачивание без начисления Download ]


Статистика раздачи
Нет
 
   
 
Top  
 
 
-Другой мир: Пробуждение / Underworld: Awakening (2012) BDRip
«Месть проснулась»
- Русское название: Другой мир: Пробуждение
Оригинальное название: Underworld: Awakening
Год выпуска: 2012
Производство: Lakeshore Entertainment / Saturn Films / Screen Gems / Sketch Films / UW4 Productions [США]
Жанр: Ужасы, фэнтези, боевик
Перевод: Дублированный [лицензия]
Субтитры: Вшитые, отключаемые
Язык субтитров: Русский (полные, комментарии создателей), английский (форс. + полные, комментарии создателей)
Дата мировой премьеры: 19 января 2012
Дата российской премьеры: 19 января 2012, «WDSSPR»
Дата выхода DVD релиза: 21 февраля 2012, «Columbia/Sony»
Дата выхода Blu-Ray релиза: 15 мая 2012, «Columbia/Sony»
Режиссер: Монс Морлинд, Бьёрн Стейн
Актеры: Кейт Бекинсейл, Стивен Ри, Майкл Или, Тео Джеймс, Индия Айли, Чарльз Дэнс, Сандрин Холт, Кристен Холден-Рид, Джейкоб Блэр, Адам Рейд
Описание фильма:
Через 12 лет в состоянии, близком к коматозному, Селин узнает о существовании родной дочери Евы — гибрида вампира и ликана. И Селин необходимо помешать БиоКом создать суперликанов, которые убьют их всех.

Продолжительность: 01:28:34
Качество видео: BDRip
Видеокодек: MPEG4_AVC / H.264
Битрейт видео: ~6859 kbps, Бит/(Пиксели*Кадры): 0.138
Размер кадра: 1920х1080
Аудио 1: AC3 5.1, 640 kbps [Русский]
Аудио 2: AC3 5.1, 640 kbps [Украинский]
Аудио 3: AC3 5.1, 640 kbps [Английский]

MediaInfo...

Полное имя : D:\Другой.мир.Пробуждение-Underworld.Awakening.(2012).1080p.BDRip.[3D].mkv
Формат : Matroska
Версия формата : Version 2
Размер файла : 5,54 Гбайт
Продолжительность : 1 ч. 28 м.
Общий поток : 8957 Кбит/сек
Название фильма : Underworld: Awakening / Другой мир: Пробуждение (3D) 2012 (ash61)
Дата кодирования : UTC 2012-04-19 12:31:19
Программа кодирования : mkvmerge v3.4.0 ('Rapunzel') сборка от May 15 2010 09:38:20
Библиотека кодирования : libebml v0.8.0 + libmatroska v0.9.0
Видео
Идентификатор : 1
Формат : AVC
Формат/Информация : Advanced Video Codec
Профиль формата : High@L4.1
Параметр CABAC формата : Да
Параметр ReFrames формата : 4 кадра
Идентификатор кодека : V_MPEG4/ISO/AVC
Продолжительность : 1 ч. 28 м.
Битрейт : 6859 Кбит/сек
Ширина : 1920 пикс.
Высота : 1080 пикс.
Соотношение сторон : 16:9
Частота кадров : 23,976 кадр/сек
Цветовое пространство : YUV
Подвыборка цветности : 4:2:0
Битовая глубина : 8 бит
Тип развёртки : Прогрессивная
Бит/(Пиксели*Кадры) : 0.138
Размер потока : 4,24 Гбайт (77%)
Заголовок : BDrip by ash61
Библиотека кодирования : x264 core 119 r2106 07efeb4
Настройки программы : cabac=1 / ref=4 / deblock=1:-3:-3 / analyse=0x3:0x113 / me=umh / subme=9 / psy=1 / psy_rd=1.00:0.15 / mixed_ref=1 / me_range=16 / chroma_me=1 / trellis=2 / 8x8dct=1 / cqm=0 / deadzone=21,11 / fast_pskip=1 / chroma_qp_offset=-3 / threads=3 / sliced_threads=0 / nr=0 / decimate=1 / interlaced=0 / bluray_compat=0 / constrained_intra=0 / bframes=6 / b_pyramid=2 / b_adapt=2 / b_bias=0 / direct=3 / weightb=1 / open_gop=0 / weightp=2 / keyint=250 / keyint_min=23 / scenecut=40 / intra_refresh=0 / rc_lookahead=60 / rc=crf / mbtree=1 / crf=17.0 / qcomp=0.70 / qpmin=0 / qpmax=69 / qpstep=4 / vbv_maxrate=40000 / vbv_bufsize=40000 / crf_max=0.0 / nal_hrd=none / ip_ratio=1.40 / aq=1:0.70
Аудио #1
Идентификатор : 2
Формат : AC-3
Формат/Информация : Audio Coding 3
Расширение режима : CM (complete main)
Идентификатор кодека : A_AC3
Продолжительность : 1 ч. 28 м.
Вид битрейта : Постоянный
Битрейт : 640 Кбит/сек
Каналы : 6 каналов
Расположение каналов : Front: L C R, Side: L R, LFE
Частота : 48,0 КГц
Битовая глубина : 16 бит
Метод сжатия : С потерями
Размер потока : 405 Мбайт (7%)
Заголовок : Дубляж с BD 3D CEE
Язык : Russian
Аудио #2
Идентификатор : 3
Формат : AC-3
Формат/Информация : Audio Coding 3
Расширение режима : CM (complete main)
Идентификатор кодека : A_AC3
Продолжительность : 1 ч. 28 м.
Вид битрейта : Постоянный
Битрейт : 640 Кбит/сек
Каналы : 6 каналов
Расположение каналов : Front: L C R, Side: L R, LFE
Частота : 48,0 КГц
Битовая глубина : 16 бит
Метод сжатия : С потерями
Размер потока : 405 Мбайт (7%)
Заголовок : Дубляж с BD 3D CEE
Язык : Ukrainian
Аудио #3
Идентификатор : 4
Формат : AC-3
Формат/Информация : Audio Coding 3
Расширение режима : CM (complete main)
Идентификатор кодека : A_AC3
Продолжительность : 1 ч. 28 м.
Вид битрейта : Постоянный
Битрейт : 640 Кбит/сек
Каналы : 6 каналов
Расположение каналов : Front: L C R, Side: L R, LFE
Частота : 48,0 КГц
Битовая глубина : 16 бит
Метод сжатия : С потерями
Размер потока : 405 Мбайт (7%)
Заголовок : Original
Язык : English
Текст #1
Идентификатор : 5
Формат : UTF-8
Идентификатор кодека : S_TEXT/UTF8
Идентификатор кодека/Информация : UTF-8 Plain Text
Заголовок : Полные
Язык : Russian
Текст #2
Идентификатор : 6
Формат : UTF-8
Идентификатор кодека : S_TEXT/UTF8
Идентификатор кодека/Информация : UTF-8 Plain Text
Заголовок : Комментарии создателей
Язык : Russian
Текст #3
Идентификатор : 7
Формат : UTF-8
Идентификатор кодека : S_TEXT/UTF8
Идентификатор кодека/Информация : UTF-8 Plain Text
Заголовок : Forced
Язык : English
Текст #4
Идентификатор : 8
Формат : UTF-8
Идентификатор кодека : S_TEXT/UTF8
Идентификатор кодека/Информация : UTF-8 Plain Text
Заголовок : Full
Язык : English
Текст #5
Идентификатор : 9
Формат : UTF-8
Идентификатор кодека : S_TEXT/UTF8
Идентификатор кодека/Информация : UTF-8 Plain Text
Заголовок : Commentary with the Filmmakers
Язык : English
Меню
00:00:00.000 : :1
00:04:26.057 : :2
00:07:45.340 : :3
00:16:20.188 : :4
00:21:11.812 : :5
00:24:49.988 : :6
00:30:29.828 : :7
00:35:31.755 : :8
00:40:04.944 : :9
00:45:23.930 : :10
00:52:30.731 : :11
00:57:21.563 : :12
01:02:53.937 : :13
01:07:43.726 : :14
01:12:18.501 : :15
01:16:41.430 : :16
Скриншоты:


Время раздачи: 24/7 (до 10 скачавших)

[Цитировать]



Показать сообщения:    

Текущее время: 09-Дек 01:07

Часовой пояс: UTC + 3


Вы не можете начинать темы
Вы не можете отвечать на сообщения
Вы не можете редактировать свои сообщения
Вы не можете удалять свои сообщения
Вы не можете голосовать в опросах
Вы не можете прикреплять файлы к сообщениям
Вы не можете скачивать файлы

!ВНИМАНИЕ!
Сайт не предоставляет электронные версии произведений, а занимается лишь коллекционированием и каталогизацией ссылок, присылаемых и публикуемых на форуме нашими читателями. Если вы являетесь правообладателем какого-либо представленного материала и не желаете, чтобы ссылка на него находилась в нашем каталоге, свяжитесь с нами, и мы незамедлительно удалим ее. Файлы для обмена на трекере предоставлены пользователями сайта, и администрация не несет ответственности за их содержание. Просьба не заливать файлы, защищенные авторскими правами, а также файлы нелегального содержания!