[ Сегодня идет свободное скачивание без начисления Download ]


Статистика раздачи
Нет
 
   
 
Top  
 
 
VA - Хит-парад *Золотой Граммофон* от Русского Радио за 1.03.2013- Год: 2013
Жанр: Pop, Dance
Продолжительность: 01:15:21
Кодек: MP3
Битрейт: 160-320 кб/с
Тип битрейта: CBR
Трек лист:
01. Полина Гагарина - Нет
02. Глюк'oZa - Возьми меня за руки
03. Валерий Меладзе и Вахтанг - Свет Уходящего Солнца
04. Денис Клявер - Не Такая Как Все
05. Тимати и Григорий Лепс - Лондон
06. Жасмин - Руки в рукава
07. Градусы - Я всегда помню о главном
08. Дмитрий Колдун - Облака-бродяги
09. Филипп Киркоров - Сердце Ждёт
10. Николай Басков - Ну Кто Сказал
11. Лолита - Я
12. Дима Билан - Лови Мои Цветные Сны
13. Иванушки International - Я Буду Ждать Тебя
14. 30.02 - Звёзды В Лужах
15. Банд'Эрос - Караоке
16. Dan Balan - Люби
17. Виктор Рыбин & Наталья Сенчукова - 6 слов
18. Кристина Орбакайте - Маски
19. Витас - Только Ты
20. Стас Михайлов - Оставь

MI:

Общее
Полное имя : P:\rusradio\1.Полина Гагарина - Нет.mp3
Формат : MPEG Audio
Размер файла : 7,21 Мбайт
Продолжительность : 3 м. 56 с.
Режим общего битрейта : Постоянный
Общий поток : 256 Кбит/сек
Альбом : Золотой граммофон
Трек : Нет
Трек/Положение : 01
Исполнитель : Полина Гагарина
Кодирование произвёл : www.primemusic.ru
Жанр : Pop
Дата записи : 2013
Аудио
Формат : MPEG Audio
Версия формата : Version 1
Профиль формата : Layer 3
Режим : Joint stereo
Продолжительность : 3 м. 56 с.
Вид битрейта : Постоянный
Битрейт : 256 Кбит/сек
Каналы : 2 канала
Частота : 44,1 КГц
Метод сжатия : С потерями
Размер потока : 7,21 Мбайт (100%)
Общее
Полное имя : P:\rusradio\10.Николай Басков - Ну кто сказал тебе.mp3
Формат : MPEG Audio
Размер файла : 7,94 Мбайт
Продолжительность : 3 м. 28 с.
Режим общего битрейта : Постоянный
Общий поток : 320 Кбит/сек
Альбом : Золотой граммофон
Трек : Ну Кто Сказал
Трек/Положение : 10
Исполнитель : Николай Басков
Кодирование произвёл : www.primemusic.ru
Жанр : Pop
Дата записи : 2013
Библиотека кодирования : LAME3.98
Аудио
Формат : MPEG Audio
Версия формата : Version 1
Профиль формата : Layer 3
Режим : Joint stereo
Продолжительность : 3 м. 28 с.
Вид битрейта : Постоянный
Битрейт : 320 Кбит/сек
Каналы : 2 канала
Частота : 44,1 КГц
Метод сжатия : С потерями
Размер потока : 7,94 Мбайт (100%)
Библиотека кодирования : LAME3.98
Настройки программы : -m j -V 4 -q 3 -lowpass 20.5
Общее
Полное имя : P:\rusradio\11.Лолита - Я.mp3
Формат : MPEG Audio
Размер файла : 4,29 Мбайт
Продолжительность : 3 м. 44 с.
Режим общего битрейта : Постоянный
Общий поток : 160 Кбит/сек
Альбом : Золотой граммофон
Трек : Я
Трек/Положение : 11
Исполнитель : Лолита
Кодирование произвёл : www.primemusic.ru
Жанр : Pop
Дата записи : 2013
Библиотека кодирования : LAME3.98
Аудио
Формат : MPEG Audio
Версия формата : Version 1
Профиль формата : Layer 3
Режим : Joint stereo
Расширение режима : MS Stereo
Продолжительность : 3 м. 44 с.
Вид битрейта : Постоянный
Битрейт : 160 Кбит/сек
Каналы : 2 канала
Частота : 44,1 КГц
Метод сжатия : С потерями
Размер потока : 4,28 Мбайт (100%)
Библиотека кодирования : LAME3.98
Настройки программы : -m j -V 4 -q 3 -lowpass 17.5 -b 160
Общее
Полное имя : P:\rusradio\12.Дима Билан - Лови мои цветные сны.mp3
Формат : MPEG Audio
Размер файла : 8,41 Мбайт
Продолжительность : 3 м. 40 с.
Режим общего битрейта : Постоянный
Общий поток : 320 Кбит/сек
Альбом : Золотой граммофон
Трек : Лови Мои Цветные Сны
Трек/Положение : 12
Исполнитель : Дима Билан
Жанр : Pop
Дата записи : 2013
Библиотека кодирования : LAME3.98r
Аудио
Формат : MPEG Audio
Версия формата : Version 1
Профиль формата : Layer 3
Продолжительность : 3 м. 40 с.
Вид битрейта : Постоянный
Битрейт : 320 Кбит/сек
Каналы : 2 канала
Частота : 44,1 КГц
Метод сжатия : С потерями
Размер потока : 8,41 Мбайт (100%)
Библиотека кодирования : LAME3.98r
Настройки программы : -m s -V 4 -q 3 -lowpass 20.5
Общее
Полное имя : P:\rusradio\13.Иванушки International - Я Буду Ждать Тебя.mp3
Формат : MPEG Audio
Размер файла : 8,92 Мбайт
Продолжительность : 3 м. 53 с.
Режим общего битрейта : Постоянный
Общий поток : 320 Кбит/сек
Альбом : Золотой граммофон
Трек : Я Буду Ждать Тебя
Трек/Положение : 13
Исполнитель : Иванушки International
Кодирование произвёл : www.primemusic.ru
Жанр : Pop
Дата записи : 2013
Библиотека кодирования : LAME3.98
Аудио
Формат : MPEG Audio
Версия формата : Version 1
Профиль формата : Layer 3
Режим : Joint stereo
Продолжительность : 3 м. 53 с.
Вид битрейта : Постоянный
Битрейт : 320 Кбит/сек
Каналы : 2 канала
Частота : 44,1 КГц
Метод сжатия : С потерями
Размер потока : 8,91 Мбайт (100%)
Библиотека кодирования : LAME3.98
Настройки программы : -m j -V 4 -q 3 -lowpass 20.5
Общее
Полное имя : P:\rusradio\14.30.02 - Звёзды В Лужах.mp3
Формат : MPEG Audio
Размер файла : 7,13 Мбайт
Продолжительность : 3 м. 6 с.
Режим общего битрейта : Постоянный
Общий поток : 320 Кбит/сек
Альбом : Золотой граммофон
Трек : Звёзды В Лужах
Трек/Положение : 14
Исполнитель : 30.02
Жанр : Pop
Дата записи : 2013
Аудио
Формат : MPEG Audio
Версия формата : Version 1
Профиль формата : Layer 3
Режим : Joint stereo
Продолжительность : 3 м. 6 с.
Вид битрейта : Постоянный
Битрейт : 320 Кбит/сек
Каналы : 2 канала
Частота : 44,1 КГц
Метод сжатия : С потерями
Размер потока : 7,12 Мбайт (100%)
Общее
Полное имя : P:\rusradio\15.Банд'Эрос - Караоке.mp3
Формат : MPEG Audio
Размер файла : 6,85 Мбайт
Продолжительность : 3 м. 44 с.
Режим общего битрейта : Постоянный
Общий поток : 256 Кбит/сек
Альбом : Золотой граммофон
Трек : Караоке
Трек/Положение : 15
Исполнитель : Банд'Эрос
Жанр : Pop
Дата записи : 2013
Библиотека кодирования : LAME3.97b
Аудио
Формат : MPEG Audio
Версия формата : Version 1
Профиль формата : Layer 3
Продолжительность : 3 м. 44 с.
Вид битрейта : Постоянный
Битрейт : 256 Кбит/сек
Каналы : 2 канала
Частота : 44,1 КГц
Метод сжатия : С потерями
Размер потока : 6,84 Мбайт (100%)
Библиотека кодирования : LAME3.97b
Настройки программы : -m s -V 4 -q 2 -lowpass 19.7
Общее
Полное имя : P:\rusradio\16.Dan Balan - Люби.mp3
Формат : MPEG Audio
Размер файла : 7,02 Мбайт
Продолжительность : 3 м. 50 с.
Режим общего битрейта : Постоянный
Общий поток : 256 Кбит/сек
Альбом : Золотой граммофон
Трек : Люби
Трек/Положение : 16
Исполнитель : Dan Balan
Кодирование произвёл : www.primemusic.ru
Жанр : Pop
Дата записи : 2013
Аудио
Формат : MPEG Audio
Версия формата : Version 1
Профиль формата : Layer 3
Режим : Joint stereo
Продолжительность : 3 м. 50 с.
Вид битрейта : Постоянный
Битрейт : 256 Кбит/сек
Каналы : 2 канала
Частота : 44,1 КГц
Метод сжатия : С потерями
Размер потока : 7,02 Мбайт (100%)
Общее
Полное имя : P:\rusradio\17.Виктор Рыбин & Наталья Сенчукова - 6 слов.mp3
Формат : MPEG Audio
Размер файла : 7,68 Мбайт
Продолжительность : 3 м. 19 с.
Режим общего битрейта : Постоянный
Общий поток : 320 Кбит/сек
Альбом : Золотой граммофон
Трек : 6 слов
Трек/Положение : 17
Исполнитель : Виктор Рыбин & Наталья Сенчукова
Жанр : Pop
Дата записи : 2013
Библиотека кодирования : LAME3.97
Аудио
Формат : MPEG Audio
Версия формата : Version 1
Профиль формата : Layer 3
Продолжительность : 3 м. 19 с.
Вид битрейта : Постоянный
Битрейт : 320 Кбит/сек
Каналы : 2 канала
Частота : 44,1 КГц
Метод сжатия : С потерями
Размер потока : 7,61 Мбайт (99%)
Библиотека кодирования : LAME3.97
Настройки программы : -m s -V 4 -q 2 -lowpass 20.5
Общее
Полное имя : P:\rusradio\18.Кристина Орбакайте - Маски.mp3
Формат : MPEG Audio
Размер файла : 8,59 Мбайт
Продолжительность : 3 м. 45 с.
Режим общего битрейта : Постоянный
Общий поток : 320 Кбит/сек
Альбом : Золотой граммофон
Трек : Маски
Трек/Положение : 18
Исполнитель : Кристина Орбакайте
Жанр : Pop
Дата записи : 2013
Аудио
Формат : MPEG Audio
Версия формата : Version 1
Профиль формата : Layer 3
Продолжительность : 3 м. 45 с.
Вид битрейта : Постоянный
Битрейт : 320 Кбит/сек
Каналы : 2 канала
Частота : 44,1 КГц
Метод сжатия : С потерями
Размер потока : 8,59 Мбайт (100%)
Общее
Полное имя : P:\rusradio\19.Витас - Только Ты.mp3
Формат : MPEG Audio
Размер файла : 10,1 Мбайт
Продолжительность : 4 м. 25 с.
Режим общего битрейта : Постоянный
Общий поток : 320 Кбит/сек
Альбом : Золотой граммофон
Трек : Только Ты
Трек/Положение : 19
Исполнитель : Витас
Кодирование произвёл : www.primemusic.ru
Жанр : Pop
Дата записи : 2013
Аудио
Формат : MPEG Audio
Версия формата : Version 1
Профиль формата : Layer 3
Режим : Joint stereo
Продолжительность : 4 м. 25 с.
Вид битрейта : Постоянный
Битрейт : 320 Кбит/сек
Каналы : 2 канала
Частота : 44,1 КГц
Метод сжатия : С потерями
Размер потока : 10,1 Мбайт (100%)
Общее
Полное имя : P:\rusradio\2.Глюк'oZa - Возьми меня за руку.mp3
Формат : MPEG Audio
Размер файла : 8,63 Мбайт
Продолжительность : 3 м. 46 с.
Режим общего битрейта : Постоянный
Общий поток : 320 Кбит/сек
Альбом : Золотой граммофон
Трек : Возьми меня за руки
Трек/Положение : 02
Исполнитель : Глюк'oZa
Кодирование произвёл : iTunes 10.7.0.21
Жанр : Pop
Дата записи : 2013
Аудио
Формат : MPEG Audio
Версия формата : Version 1
Профиль формата : Layer 3
Продолжительность : 3 м. 46 с.
Вид битрейта : Постоянный
Битрейт : 320 Кбит/сек
Каналы : 2 канала
Частота : 44,1 КГц
Метод сжатия : С потерями
Размер потока : 8,62 Мбайт (100%)
Общее
Полное имя : P:\rusradio\20.Стас Михайлов - Оставь.mp3
Формат : MPEG Audio
Размер файла : 5,32 Мбайт
Продолжительность : 3 м. 52 с.
Режим общего битрейта : Постоянный
Общий поток : 192 Кбит/сек
Альбом : Золотой граммофон
Трек : Оставь
Трек/Положение : 20
Исполнитель : Стас Михайлов
Жанр : Pop
Дата записи : 2013
Библиотека кодирования : LAME3.98
Аудио
Формат : MPEG Audio
Версия формата : Version 1
Профиль формата : Layer 3
Режим : Joint stereo
Расширение режима : MS Stereo
Продолжительность : 3 м. 52 с.
Вид битрейта : Постоянный
Битрейт : 192 Кбит/сек
Каналы : 2 канала
Частота : 44,1 КГц
Метод сжатия : С потерями
Размер потока : 5,32 Мбайт (100%)
Библиотека кодирования : LAME3.98
Настройки программы : -m j -V 4 -q 3 -lowpass 18.6 -b 192
Общее
Полное имя : P:\rusradio\3.Валерий Меладзе и Вахтанг - Свет Уходящего Солнца.mp3
Формат : MPEG Audio
Размер файла : 6,85 Мбайт
Продолжительность : 3 м. 44 с.
Режим общего битрейта : Постоянный
Общий поток : 256 Кбит/сек
Альбом : Золотой граммофон
Трек : Свет Уходящего Солнца
Трек/Положение : 03
Исполнитель : Валерий Меладзе и Вахтанг
Кодирование произвёл : www.primemusic.ru
Жанр : Pop
Дата записи : 2013
Аудио
Формат : MPEG Audio
Версия формата : Version 1
Профиль формата : Layer 3
Режим : Joint stereo
Продолжительность : 3 м. 44 с.
Вид битрейта : Постоянный
Битрейт : 256 Кбит/сек
Каналы : 2 канала
Частота : 44,1 КГц
Метод сжатия : С потерями
Размер потока : 6,85 Мбайт (100%)
Общее
Полное имя : P:\rusradio\4.Денис Клявер - Не Такая Как Все.mp3
Формат : MPEG Audio
Размер файла : 8,72 Мбайт
Продолжительность : 3 м. 48 с.
Режим общего битрейта : Постоянный
Общий поток : 320 Кбит/сек
Альбом : Золотой граммофон
Трек : Не Такая Как Все
Трек/Положение : 04
Исполнитель : Денис Клявер
Кодирование произвёл : www.primemusic.ru
Жанр : Pop
Дата записи : 2013
Библиотека кодирования : LAME3.97
Аудио
Формат : MPEG Audio
Версия формата : Version 1
Профиль формата : Layer 3
Режим : Joint stereo
Расширение режима : MS Stereo
Продолжительность : 3 м. 48 с.
Вид битрейта : Постоянный
Битрейт : 320 Кбит/сек
Каналы : 2 канала
Частота : 44,1 КГц
Метод сжатия : С потерями
Размер потока : 8,71 Мбайт (100%)
Библиотека кодирования : LAME3.97
Общее
Полное имя : P:\rusradio\5.Тимати и Григорий Лепс - Лондон.mp3
Формат : MPEG Audio
Размер файла : 4,02 Мбайт
Продолжительность : 4 м. 23 с.
Режим общего битрейта : Постоянный
Общий поток : 128 Кбит/сек
Альбом : Золотой граммофон
Трек : Лондон
Трек/Положение : 05
Исполнитель : Тимати и Григорий Лепс
Кодирование произвёл : www.primemusic.ru
Жанр : Pop
Дата записи : 2013
Библиотека кодирования : LAME3.98
Аудио
Формат : MPEG Audio
Версия формата : Version 1
Профиль формата : Layer 3
Режим : Joint stereo
Расширение режима : MS Stereo
Продолжительность : 4 м. 23 с.
Вид битрейта : Постоянный
Битрейт : 128 Кбит/сек
Каналы : 2 канала
Частота : 44,1 КГц
Метод сжатия : С потерями
Размер потока : 4,02 Мбайт (100%)
Библиотека кодирования : LAME3.98
Настройки программы : -m j -V 4 -q 3 -lowpass 17 -b 128
Общее
Полное имя : P:\rusradio\6.Жасмин - Руки в рукава.mp3
Формат : MPEG Audio
Размер файла : 6,05 Мбайт
Продолжительность : 3 м. 18 с.
Режим общего битрейта : Постоянный
Общий поток : 256 Кбит/сек
Альбом : Золотой граммофон
Трек : Руки в рукава
Трек/Положение : 06
Исполнитель : Жасмин
Жанр : Pop
Дата записи : 2013
Аудио
Формат : MPEG Audio
Версия формата : Version 1
Профиль формата : Layer 3
Продолжительность : 3 м. 18 с.
Вид битрейта : Постоянный
Битрейт : 256 Кбит/сек
Каналы : 2 канала
Частота : 44,1 КГц
Метод сжатия : С потерями
Размер потока : 6,05 Мбайт (100%)
Общее
Полное имя : P:\rusradio\7.Градусы - Я Всегда Помню О Главном.mp3
Формат : MPEG Audio
Размер файла : 8,04 Мбайт
Продолжительность : 3 м. 30 с.
Режим общего битрейта : Постоянный
Общий поток : 320 Кбит/сек
Альбом : Золотой граммофон
Трек : Я всегда помню о главном
Трек/Положение : 07
Исполнитель : Градусы
Кодирование произвёл : Fraunhofer IIS MP3 v04.00.03 (fast)
Жанр : Pop
Дата записи : 2013
Аудио
Формат : MPEG Audio
Версия формата : Version 1
Профиль формата : Layer 3
Режим : Joint stereo
Продолжительность : 3 м. 30 с.
Вид битрейта : Постоянный
Битрейт : 320 Кбит/сек
Каналы : 2 канала
Частота : 44,1 КГц
Метод сжатия : С потерями
Размер потока : 8,04 Мбайт (100%)
Общее
Полное имя : P:\rusradio\8.Дмитрий Колдун - Облака-Бродяги.mp3
Формат : MPEG Audio
Размер файла : 7,08 Мбайт
Продолжительность : 3 м. 51 с.
Режим общего битрейта : Постоянный
Общий поток : 256 Кбит/сек
Альбом : Золотой граммофон
Трек : Облака-бродяги
Трек/Положение : 08
Исполнитель : Дмитрий Колдун
Жанр : Pop
Дата записи : 2013
Аудио
Формат : MPEG Audio
Версия формата : Version 1
Профиль формата : Layer 3
Режим : Joint stereo
Продолжительность : 3 м. 51 с.
Вид битрейта : Постоянный
Битрейт : 256 Кбит/сек
Каналы : 2 канала
Частота : 44,1 КГц
Метод сжатия : С потерями
Размер потока : 7,07 Мбайт (100%)
Общее
Полное имя : P:\rusradio\9.Филипп Киркоров - Сердце Ждет.mp3
Формат : MPEG Audio
Размер файла : 7,92 Мбайт
Продолжительность : 4 м. 19 с.
Режим общего битрейта : Постоянный
Общий поток : 256 Кбит/сек
Альбом : Золотой граммофон
Трек : Сердце Ждёт
Трек/Положение : 09
Исполнитель : Филипп Киркоров
Жанр : Pop
Дата записи : 2013
Библиотека кодирования : LAME3.97b
Аудио
Формат : MPEG Audio
Версия формата : Version 1
Профиль формата : Layer 3
Продолжительность : 4 м. 19 с.
Вид битрейта : Постоянный
Битрейт : 256 Кбит/сек
Каналы : 2 канала
Частота : 44,1 КГц
Метод сжатия : С потерями
Размер потока : 7,92 Мбайт (100%)
Библиотека кодирования : LAME3.97b
Настройки программы : -m s -V 4 -q 2 -lowpass 19.7
Время раздачи: 17:00 до 01:00, до 5-ти скачавших

[Цитировать]



Показать сообщения:    

Текущее время: 03-Дек 01:13

Часовой пояс: UTC + 3


Вы не можете начинать темы
Вы не можете отвечать на сообщения
Вы не можете редактировать свои сообщения
Вы не можете удалять свои сообщения
Вы не можете голосовать в опросах
Вы не можете прикреплять файлы к сообщениям
Вы не можете скачивать файлы

!ВНИМАНИЕ!
Сайт не предоставляет электронные версии произведений, а занимается лишь коллекционированием и каталогизацией ссылок, присылаемых и публикуемых на форуме нашими читателями. Если вы являетесь правообладателем какого-либо представленного материала и не желаете, чтобы ссылка на него находилась в нашем каталоге, свяжитесь с нами, и мы незамедлительно удалим ее. Файлы для обмена на трекере предоставлены пользователями сайта, и администрация не несет ответственности за их содержание. Просьба не заливать файлы, защищенные авторскими правами, а также файлы нелегального содержания!