[ Сегодня идет свободное скачивание без начисления Download ]


Статистика раздачи
Нет
 
   
 
Top  
 
 
-Черепа / The Skulls (2000) DVDRip
«If a secret society can give you everything you desire, imagine what they can take away.»
- Русское название: Черепа
Оригинальное название: The Skulls
Год выпуска: 2000
Производство: США, Канада, Universal Pictures, Original Film, Newmarket Capital Group, Cranium Films
Жанр: Триллер, драма, криминал
Перевод: Профессиональный (полное дублирование)
Субтитры: Отсутствуют
Режиссер: Роб Коэн
Сценарий: Джон Пог
Актеры: Пол Уокер, Джошуа Джексон, Хилл Харпер, Лесли Бибб, Кристофер МакДональд, Стив Харрис, Уильям Л. Петерсен, Крейг Т. Нельсон, Дэвид Асман, Скотт Гибсон, Нигель Беннетт, Эндрю Крулис, Дерек Аасланд, Дженнифер Мелино, Ноа Данби
Описание фильма:
О существовании тайной могущественной организации догадывались многие. На самом деле ее люди давно проникли во все сферы американского общества. Поименно их не знал никто. Однако, по крайней мере, три бывших президента Америки состояли в «Черепах». Для Люка Макнамары приглашение вступить в «Черепа» стало сбывшейся мечтой. Перед ним открылись неограниченные возможности, подкрепленные материальными благами. Он стал избранным. Но цена обретения этого права оказалась непомерно высокой!- -Продолжительность: 01:42:47
Качество видео: DVDRip
Видеокодек: XviD
Битрейт видео: 875 Кбит/сек
Размер кадра: 656x368
Аудио : Русский, MP3, 2 ch, 128 Кбит/сек

MediaInfo

Общее
Полное имя                               : E:\Раздачи\Видео\Черепа (2000) DVDRip.avi
Формат                                   : AVI
Формат/Информация                        : Audio Video Interleave
Размер файла                             : 744 Мбайт
Продолжительность                        : 1 ч. 42 м.
Общий поток                              : 1012 Кбит/сек
Программа кодирования                    : VirtualDubMod 1.5.10.2 (build 2540/release)
Библиотека кодирования                   : VirtualDubMod build 2540/release
Видео
Идентификатор                            : 0
Формат                                   : MPEG-4 Visual
Профиль формата                          : Advanced [email protected]
Параметр BVOP формата                    : 1
Параметр QPel формата                    : Нет
Параметр GMC формата                     : Без точки перехода
Параметр матрицы формата                 : Выборочная
Идентификатор кодека                     : XVID
Идентификатор кодека/Подсказка           : XviD
Продолжительность                        : 1 ч. 42 м.
Битрейт                                  : 875 Кбит/сек
Ширина                                   : 656 пикселей
Высота                                   : 368 пикселей
Соотношение сторон                       : 16:9
Частота кадров                           : 25,000 кадров/сек
Цветовое пространство                    : YUV
Субдискретизация насыщенности            : 4:2:0
Битовая глубина                          : 8 бит
Тип развёртки                            : Прогрессивная
Метод сжатия                             : С потерями
Бит/(Пиксели*Кадры)                      : 0.145
Размер потока                            : 643 Мбайт (86%)
Библиотека кодирования                   : XviD 1.2.1 (UTC 2008-12-04)
Аудио
Идентификатор                            : 1
Формат                                   : MPEG Audio
Версия формата                           : Version 1
Профиль формата                          : Layer 3
Идентификатор кодека                     : 55
Идентификатор кодека/Подсказка           : MP3
Продолжительность                        : 1 ч. 42 м.
Вид битрейта                             : Постоянный
Битрейт                                  : 128 Кбит/сек
Каналы                                   : 2 канала
Частота                                  : 48,0 КГц
Метод сжатия                             : С потерями
Размер потока                            : 94,1 Мбайт (13%)
Выравнивание                             : Соединение по промежуткам
Продолжительность промежутка             : 40  мс. (1,00 видеокадр)
Время предзагрузки промежутка            : 504  мс.
Библиотека кодирования                   : LAME3.97
Настройки программы                      : -m s -V 4 -q 2 -lowpass 17 -b 128
Скриншоты:

-Время раздачи: 9.00 - 23.00 (по мере возможности...)

[Цитировать]



Показать сообщения:    

Текущее время: 04-Дек 05:00

Часовой пояс: UTC + 3


Вы не можете начинать темы
Вы не можете отвечать на сообщения
Вы не можете редактировать свои сообщения
Вы не можете удалять свои сообщения
Вы не можете голосовать в опросах
Вы не можете прикреплять файлы к сообщениям
Вы не можете скачивать файлы

!ВНИМАНИЕ!
Сайт не предоставляет электронные версии произведений, а занимается лишь коллекционированием и каталогизацией ссылок, присылаемых и публикуемых на форуме нашими читателями. Если вы являетесь правообладателем какого-либо представленного материала и не желаете, чтобы ссылка на него находилась в нашем каталоге, свяжитесь с нами, и мы незамедлительно удалим ее. Файлы для обмена на трекере предоставлены пользователями сайта, и администрация не несет ответственности за их содержание. Просьба не заливать файлы, защищенные авторскими правами, а также файлы нелегального содержания!