[ Сегодня идет свободное скачивание без начисления Download ]


Статистика раздачи
Нет
 
   
 
Top  
 
 
-Его игра / He Got Game - Русское название: Его игра
Оригинальное название: He Got Game
Страна: США
Год выпуска: 1998
Жанр: Драма-Описание фильма:
У осужденного за убийство Джейка Шатлсуорта появляется призрачный шанс выйти на свободу раньше, чем через положенные ему 15 лет. Он просто должен убедить своего сына - талантливого баскетболиста - поступить в определенный университет. С этой целью два сопровождающих агента привозят Джейка в Нью-Йорк и селят в гадюшник, именуемый гостиницей. С радиомаяком на ноге и проституткой по соседству, Джейк получает несколько дней свободы, чтобы вновь обрести сына, мать которого он убил шесть лет назад…-Режиссер: Спайк Ли / Spike Lee
Актеры: Дензел Вашингтон, Рэй Аллен, Милла Йовович, Розарио Доусон, Хилл Харпер, Зельда Харрис, Нед Битти, Джим Браун, Джозеф Лайл Тейлор, Билл Нанн-Продолжительность: 02:10:59
Перевод: Профессиональный (двухголосый закадровый), Twister + Авторский, Гаврилов
Оригинальная аудиодорожка: английский
Субтитры: Русские, английские, французские- -
Рейтинг R - Детям до 17 лет обязательно присутствие родителей-Видеокодек: MPEG-4 AVC/H.264
Битрейт видео: ~11300 Kbps
Размер кадра: 1920x1036p
Качество видео: BDRip 1080p-Аудио 1: Русский AC3, 384 Kbps, 48 kHz, 6 ch | DVO | Twister
Аудио 2: Русский AC3, 192 Kbps, 48 kHz, 2 ch | AVO | Гаврилов
Аудио 3: Английский DTS, 1510 Kbps, 48 kHz, 6 ch, 24 bit | Original
-

MediaInfo:

General
Complete name : E:\He.Got.Game.1998.BDRip.1080p.mkv
Format : Matroska
File size : 12.5 GiB
Duration : 2h 10mn
Overall bit rate : 13.7 Mbps
Movie name : He.Got.Game.1998.BDRip.1080p.
Encoded date : UTC 2012-07-29 05:22:32
Writing application : mkvmerge v5.4.0 ('Piper') built on Mar 10 2012 13:34:39
Writing library : libebml v1.2.3 + libmatroska v1.3.0
Video
ID : 1
Format : AVC
Format/Info : Advanced Video Codec
Format profile : High@L4.1
Format settings, CABAC : Yes
Format settings, ReFrames : 4 frames
Muxing mode : Container profile=Unknown@4.1
Codec ID : V_MPEG4/ISO/AVC
Duration : 2h 10mn
Bit rate : 11.3 Mbps
Nominal bit rate : 11.6 Mbps
Width : 1 920 pixels
Height : 1 036 pixels
Display aspect ratio : 1.853
Frame rate : 25.000 fps
Resolution : 8 bits
Colorimetry : 4:2:0
Scan type : Progressive
Bits/(Pixel*Frame) : 0.228
Stream size : 10.4 GiB (83%)
Title : He.Got.Game.1998
Writing library : x264 core 124 r2197 69a0443
Encoding settings : cabac=1 / ref=4 / deblock=1:-2:-2 / analyse=0x3:0x113 / me=umh / subme=10 / psy=1 / psy_rd=1.20:0.20 / mixed_ref=1 / me_range=32 / chroma_me=1 / trellis=2 / 8x8dct=1 / cqm=0 / deadzone=21,11 / fast_pskip=0 / chroma_qp_offset=-3 / threads=9 / sliced_threads=0 / nr=0 / decimate=0 / interlaced=0 / bluray_compat=0 / constrained_intra=0 / bframes=5 / b_pyramid=2 / b_adapt=2 / b_bias=0 / direct=3 / weightb=1 / open_gop=0 / weightp=2 / keyint=250 / keyint_min=2 / scenecut=40 / intra_refresh=0 / rc_lookahead=72 / rc=2pass / mbtree=1 / bitrate=11606 / ratetol=1.0 / qcomp=0.60 / qpmin=10 / qpmax=51 / qpstep=4 / cplxblur=20.0 / qblur=0.5 / vbv_maxrate=38000 / vbv_bufsize=38000 / nal_hrd=none / ip_ratio=1.40 / aq=1:1.00
Audio #1
ID : 2
Format : AC-3
Format/Info : Audio Coding 3
Codec ID : A_AC3
Duration : 2h 10mn
Bit rate mode : Constant
Bit rate : 384 Kbps
Channel(s) : 6 channels
Channel positions : Front: L C R, Surround: L R, LFE
Sampling rate : 48.0 KHz
Stream size : 360 MiB (3%)
Title : DVO (Twister)
Language : Russian
Audio #2
ID : 3
Format : AC-3
Format/Info : Audio Coding 3
Codec ID : A_AC3
Duration : 2h 10mn
Bit rate mode : Constant
Bit rate : 192 Kbps
Channel(s) : 2 channels
Channel positions : L R
Sampling rate : 48.0 KHz
Stream size : 180 MiB (1%)
Title : AVO (Gavrilov)
Language : Russian
Audio #3
ID : 4
Format : DTS
Format/Info : Digital Theater Systems
Codec ID : A_DTS
Duration : 2h 10mn
Bit rate mode : Constant
Bit rate : 1 510 Kbps
Channel(s) : 6 channels
Channel positions : Front: L C R, Surround: L R, LFE
Sampling rate : 48.0 KHz
Resolution : 24 bits
Stream size : 1.38 GiB (11%)
Title : Original
Text #1
ID : 5
Format : UTF-8
Codec ID : S_TEXT/UTF8
Codec ID/Info : UTF-8 Plain Text
Title : Twister
Language : Russian
Text #2
ID : 6
Format : UTF-8
Codec ID : S_TEXT/UTF8
Codec ID/Info : UTF-8 Plain Text
Text #3
ID : 7
Format : VobSub
Codec ID : S_VOBSUB
Codec ID/Info : The same subtitle format used on DVDs
Language : French
Menu
00:00:00.000 : en:00:00:00.000
00:09:36.920 : en:00:09:36.920
00:18:51.120 : en:00:18:51.120
00:34:39.000 : en:00:34:39.000
00:44:53.320 : en:00:44:53.320
00:57:04.160 : en:00:57:04.160
01:06:52.320 : en:01:06:52.320
01:15:14.280 : en:01:15:14.280
01:27:05.720 : en:01:27:05.720
01:39:08.440 : en:01:39:08.440
01:50:35.400 : en:01:50:35.400
02:00:35.800 : en:02:00:35.800
-Скриншоты:

[Цитировать]



Показать сообщения:    

Текущее время: 10-Дек 15:47

Часовой пояс: UTC + 3


Вы не можете начинать темы
Вы не можете отвечать на сообщения
Вы не можете редактировать свои сообщения
Вы не можете удалять свои сообщения
Вы не можете голосовать в опросах
Вы не можете прикреплять файлы к сообщениям
Вы не можете скачивать файлы

!ВНИМАНИЕ!
Сайт не предоставляет электронные версии произведений, а занимается лишь коллекционированием и каталогизацией ссылок, присылаемых и публикуемых на форуме нашими читателями. Если вы являетесь правообладателем какого-либо представленного материала и не желаете, чтобы ссылка на него находилась в нашем каталоге, свяжитесь с нами, и мы незамедлительно удалим ее. Файлы для обмена на трекере предоставлены пользователями сайта, и администрация не несет ответственности за их содержание. Просьба не заливать файлы, защищенные авторскими правами, а также файлы нелегального содержания!