[ Сегодня идет свободное скачивание без начисления Download ]


Статистика раздачи
Нет
 
   
 
Top  
 
 
-Машинист / El Maquinista / The Machinist - Русское название: Машинист
Оригинальное название: El Maquinista / The Machinist
Год выпуска: 2004
Производство: Испания
Жанр: Триллер, Драма, Детектив
Перевод: Многоголосый закадровый, Двухголосый
Язык субтитров: Русский, Английский
Вид субтитров: Вшитые отключаемые
Режиссер: Брэд Андерсон
Актеры: Кристиан Бэйл, Дженнифер Джейсон Ли, Айтана Санчес-Хихон, Джон Шэриан, Майкл Айронсайд, Ларри Джиллиард мл., Рег Э. Кэти, Анна Мэсси, Мэттью Ромеро Мур, Роберт Лонг
Описание фильма:
Тревор Резник не спит уже целый год. Превратившись в живой скелет, он балансирует на грани сна и реальности. Он устал отличать пугающие видения от странных событий своей каждодневной жизни, но в последнее время они стали пересекаться самым страшным и непредсказуемым образом.

Дата мировой премьеры: 18 января 2004
Дата российской премьеры: 21 октября 2004, «Пирамида»
Продолжительность: 01:41:55
Качество видео: BDRip [720p]
Видеокодек: MPEG-4 AVC/H.264
Видео: 1280x542, ~4543 Кбит/с
Аудио 1: AC3, 6 ch, 448 Кбит/с (Многоголосый, Русский R5)
Аудио 2: AC3, 6 ch, 448 Кбит/с (Двухголосый, Tycoon)
Аудио 3: DTS, 6 ch, 1510 Кбит/с (Оригинал, Английский)
Аудио 4: OGG, 2 ch, ~64 Кбит/с (Комментарии, Английский)

MediaInfo:

Общее
Уникальный идентификатор : 218934490565997927630744168058870184199 (0xA4B53FC69787397495D7CAE1C49E3907)
Полное имя : The.Machinist.2004.BDRip.720p.mkv
Формат : Matroska
Версия формата : Version 2
Размер файла : 5,00 Гбайт
Продолжительность : 1 ч. 41 м.
Режим общего битрейта : Переменный
Общий поток : 7017 Кбит/сек
Название фильма : The Machinist
Дата кодирования : UTC 2013-03-03 09:34:56
Программа кодирования : mkvmerge v4.6.0 ('Still Crazy After All These Years') сборка от Mar 10 2011 02:50:32
Библиотека кодирования : libebml v1.2.0 + libmatroska v1.1.0
Видео
Идентификатор : 1
Формат : AVC
Формат/Информация : Advanced Video Codec
Профиль формата : High@L4.1
Параметр CABAC формата : Да
Параметр ReFrames формата : 8 кадров
Идентификатор кодека : V_MPEG4/ISO/AVC
Продолжительность : 1 ч. 41 м.
Битрейт : 4543 Кбит/сек
Ширина : 1280 пикселей
Высота : 542 пикселя
Соотношение сторон : 2,35:1
Частота кадров : 23,976 кадра/сек
Цветовое пространство : YUV
Субдискретизация насыщенности : 4:2:0
Битовая глубина : 8 бит
Тип развёртки : Прогрессивная
Бит/(Пиксели*Кадры) : 0.273
Размер потока : 3,14 Гбайт (63%)
Заголовок : The Machinist (2004) 720p
Библиотека кодирования : x264 core 84 r1416 fcf70c2
Настройки программы : cabac=1 / ref=8 / deblock=1:-3:-3 / analyse=0x3:0x113 / me=tesa / subme=10 / psy=1 / psy_rd=1.0:0.0 / mixed_ref=1 / me_range=64 / chroma_me=1 / trellis=2 / 8x8dct=1 / cqm=0 / deadzone=21,11 / fast_pskip=0 / chroma_qp_offset=-2 / threads=6 / sliced_threads=0 / nr=0 / decimate=0 / mbaff=0 / constrained_intra=0 / bframes=6 / b_pyramid=2 / b_adapt=2 / b_bias=0 / direct=3 / wpredb=1 / wpredp=2 / keyint=250 / keyint_min=25 / scenecut=40 / intra_refresh=0 / rc=2pass / mbtree=0 / bitrate=4543 / ratetol=1.0 / qcomp=0.60 / qpmin=10 / qpmax=51 / qpstep=4 / cplxblur=20.0 / qblur=0.5 / ip_ratio=1.40 / pb_ratio=1.30 / aq=1:0.80
Язык : English
Default : Нет
Forced : Нет
Аудио #1
Идентификатор : 2
Формат : AC-3
Формат/Информация : Audio Coding 3
Расширение режима : CM (complete main)
Идентификатор кодека : A_AC3
Продолжительность : 1 ч. 41 м.
Вид битрейта : Постоянный
Битрейт : 448 Кбит/сек
Каналы : 6 каналов
Расположение каналов : Front: L C R, Side: L R, LFE
Частота : 48,0 КГц
Битовая глубина : 16 бит
Метод сжатия : С потерями
Размер потока : 327 Мбайт (6%)
Заголовок : AC3 5.1 448 kbps (Многоголосый, R5)
Язык : Russian
Default : Да
Forced : Нет
Аудио #2
Идентификатор : 3
Формат : AC-3
Формат/Информация : Audio Coding 3
Расширение режима : CM (complete main)
Идентификатор кодека : A_AC3
Продолжительность : 1 ч. 41 м.
Вид битрейта : Постоянный
Битрейт : 448 Кбит/сек
Каналы : 6 каналов
Расположение каналов : Front: L C R, Side: L R, LFE
Частота : 48,0 КГц
Битовая глубина : 16 бит
Метод сжатия : С потерями
Размер потока : 327 Мбайт (6%)
Заголовок : AC3 5.1 448 kbps (Двухголосый, Tycoon)
Язык : Russian
Default : Нет
Forced : Нет
Аудио #3
Идентификатор : 4
Формат : DTS
Формат/Информация : Digital Theater Systems
Идентификатор кодека : A_DTS
Продолжительность : 1 ч. 41 м.
Вид битрейта : Постоянный
Битрейт : 1510 Кбит/сек
Каналы : 6 каналов
Расположение каналов : Front: L C R, Side: L R, LFE
Частота : 48,0 КГц
Битовая глубина : 24 бит
Метод сжатия : С потерями
Размер потока : 1,07 Гбайт (22%)
Заголовок : DTS 5.1 1536 kbps (Оригинал)
Язык : English
Default : Нет
Forced : Нет
Аудио #4
Идентификатор : 5
Формат : Vorbis
Параметр Floor формата : 1
Идентификатор кодека : A_VORBIS
Продолжительность : 1 ч. 41 м.
Вид битрейта : Переменный
Битрейт : 64,0 Кбит/сек
Каналы : 2 канала
Частота : 48,0 КГц
Метод сжатия : С потерями
Размер потока : 46,7 Мбайт (1%)
Заголовок : OGG 2.0 64 kbps (Комментарии)
Библиотека кодирования : aoTuV b5c (UTC 2008-12-15)
Язык : English
Default : Нет
Forced : Нет
Текст #1
Идентификатор : 6
Формат : UTF-8
Идентификатор кодека : S_TEXT/UTF8
Идентификатор кодека/Информация : UTF-8 Plain Text
Заголовок : Full
Язык : Russian
Default : Нет
Forced : Нет
Текст #2
Идентификатор : 7
Формат : UTF-8
Идентификатор кодека : S_TEXT/UTF8
Идентификатор кодека/Информация : UTF-8 Plain Text
Заголовок : Full
Язык : English
Default : Нет
Forced : Нет

Знаете ли вы, что...

-- Для роли Тревора Резника Кристиану Бэйлу потребовалось сбросить более 30 килограмм веса.
-- Когда персонаж Бэйла едет по Трассе 666, в одном из кадров видна табличка «Преступление и наказание». Также, главный герой читает дома роман «Идиот». Кроме того, сюжет фильма близок сюжету романа Достоевского «Двойник».
-- Главный герой, Тревор Резник, назван в честь Трента Резнора, лидера группы Nine Inch Nails, поклонником которой является режиссер фильма.
Скриншоты:

[Цитировать]



Показать сообщения:    

Текущее время: 07-Дек 17:32

Часовой пояс: UTC + 3


Вы не можете начинать темы
Вы не можете отвечать на сообщения
Вы не можете редактировать свои сообщения
Вы не можете удалять свои сообщения
Вы не можете голосовать в опросах
Вы не можете прикреплять файлы к сообщениям
Вы не можете скачивать файлы

!ВНИМАНИЕ!
Сайт не предоставляет электронные версии произведений, а занимается лишь коллекционированием и каталогизацией ссылок, присылаемых и публикуемых на форуме нашими читателями. Если вы являетесь правообладателем какого-либо представленного материала и не желаете, чтобы ссылка на него находилась в нашем каталоге, свяжитесь с нами, и мы незамедлительно удалим ее. Файлы для обмена на трекере предоставлены пользователями сайта, и администрация не несет ответственности за их содержание. Просьба не заливать файлы, защищенные авторскими правами, а также файлы нелегального содержания!