[ Сегодня идет свободное скачивание без начисления Download ]


Статистика раздачи
Нет
 
   
 
Top  
 
 
-Доспехи Бога 3: Миссия Зодиак / Chinese Zodiac (2012) BDRip [720p]- Русское название: Доспехи Бога 3: Миссия Зодиак
Оригинальное название: Chinese Zodiac
Год выпуска: 2012
Жанр: Боевик, Комедия, Приключения
Описание фильма:
Главный герой истории — работающий по всему миру охотник за сокровищами Джей Си по кличке Ястреб. Известный антиквар предлагает ему отыскать шесть редких статуэток в виде голов животных. В свое время эти бронзовые скульптуры входили в набор из 12-ти предметов, олицетворявших знаки зодиака. Фигурки украшали фонтан легендарного Летнего дворца на окраине Пекина. В 1860 году величественное сооружение было разграблено и разрушено англо-французскими войсками на исходе Второй опиумной войны, а статуэтки безвозвратно утеряны.
Режиссер: Джеки Чан
Актеры: Джеки Чан, Оливер Платт, Квон Сан У, Ляо Фань, Синтхун Яо, Чжан Ланьсинь, Лаура Вейссбеккер, Эмили Гуйо, Кэйтлин Дешель, Кенни Джи
Продолжительность: 02:02:56
Перевод: Дублированный [Лицензия]
Язык субтитров: Русские, Английские
Вид субтитров: Вшитые отключаемые

Дата мировой премьеры: 12 декабря 2012
Дата российской премьеры: 14 марта 2013, «CP Дистрибуция»
Дата выхода DVD релиза: 14 марта 2013, «CP Дистрибуция»
Видеокодек: MPEG-4 AVC/H.264
Битрейт видео: ~5873 Kb/s
Размер кадра: 1280х534
Качество видео: BDRip
Аудио 1: Русский: DTS, 6 ch, 1510 Кбит/с - дубляж [лицензия]
Аудио 2: Китайский: DTS, 6 ch, 1510 Кбит/с - оригинал
Релиз группа:

MediaInfo:

Общее
Уникальный идентификатор                 : 209088286258410958812670316896384402437 (0x9D4CF06C4D7F2D0489F4A321A5DF4405)
Полное имя                               : F:\Фильмы\Доспехи Бога 3 Миссия Зодиак\Dospehi.Boga.3.Missija.Zodiak.2012.BDRip.720p.mkv
Формат                                   : Matroska
Версия формата                           : Version 4 / Version 2
Размер файла                             : 7,63 Гбайт
Продолжительность                        : 2 ч. 2 м.
Общий поток                              : 8891 Кбит/сек
Дата кодирования                         : UTC 2013-03-11 17:07:43
Программа кодирования                    : mkvmerge v6.1.0 ('Old Devil') built on Mar  2 2013 14:32:37
Библиотека кодирования                   : libebml v1.3.0 + libmatroska v1.4.0
Видео
Идентификатор                            : 1
Формат                                   : AVC
Формат/Информация                        : Advanced Video Codec
Профиль формата                          : [url=mailto:High@L4.1]High@L4.1[/url]
Параметр CABAC формата                   : Да
Параметр ReFrames формата                : 12 кадров
Идентификатор кодека                     : V_MPEG4/ISO/AVC
Продолжительность                        : 2 ч. 2 м.
Битрейт                                  : 5873 Кбит/сек
Ширина                                   : 1280 пикселей
Высота                                   : 534 пикселя
Соотношение сторон                       : 2,40:1
Режим частоты кадров                     : Постоянный
Частота кадров                           : 24,000 кадра/сек
Цветовое пространство                    : YUV
Субдискретизация насыщенности            : 4:2:0
Битовая глубина                          : 8 бит
Тип развёртки                            : Прогрессивная
Бит/(Пиксели*Кадры)                      : 0.358
Размер потока                            : 4,89 Гбайт (64%)
Заголовок                                : Chinese.Zodiac.2012.BluRay.720p.DTS.x264-CHD
Библиотека кодирования                   : x264 core 120 r2120 0c7dab9
Настройки программы                      : cabac=1 / ref=12 / deblock=1:-3:-3 / analyse=0x3:0x113 / me=umh / subme=10 / psy=1 / psy_rd=1.10:0.15 / mixed_ref=1 / me_range=32 / chroma_me=1 / trellis=2 / 8x8dct=1 / cqm=0 / deadzone=21,11 / fast_pskip=0 / chroma_qp_offset=-2 / threads=12 / sliced_threads=0 / nr=0 / decimate=1 / interlaced=0 / bluray_compat=0 / constrained_intra=0 / bframes=6 / b_pyramid=2 / b_adapt=2 / b_bias=0 / direct=3 / weightb=1 / open_gop=0 / weightp=2 / keyint=250 / keyint_min=24 / scenecut=40 / intra_refresh=0 / rc_lookahead=40 / rc=2pass / mbtree=0 / bitrate=5873 / ratetol=1.0 / qcomp=0.60 / qpmin=0 / qpmax=69 / qpstep=4 / cplxblur=20.0 / qblur=0.5 / vbv_maxrate=40000 / vbv_bufsize=30000 / nal_hrd=none / ip_ratio=1.40 / pb_ratio=1.30 / aq=1:0.80
Язык                                     : English
Default                                  : Да
Forced                                   : Да
Аудио #1
Идентификатор                            : 2
Формат                                   : DTS
Формат/Информация                        : Digital Theater Systems
Режим                                    : 16
Параметр Endianness формата              : Big
Идентификатор кодека                     : A_DTS
Продолжительность                        : 2 ч. 2 м.
Вид битрейта                             : Постоянный
Битрейт                                  : 1510 Кбит/сек
Каналы                                   : 6 каналов
Расположение каналов                     : Front: L C R, Side: L R, LFE
Частота                                  : 48,0 КГц
Битовая глубина                          : 24 бит
Метод сжатия                             : С потерями
Размер потока                            : 1,30 Гбайт (17%)
Заголовок                                : DTS 5.1 @ 1536 kbps - Dub, BD RUS
Язык                                     : Russian
Default                                  : Да
Forced                                   : Да
Аудио #2
Идентификатор                            : 3
Формат                                   : DTS
Формат/Информация                        : Digital Theater Systems
Режим                                    : 16
Параметр Endianness формата              : Big
Идентификатор кодека                     : A_DTS
Продолжительность                        : 2 ч. 2 м.
Вид битрейта                             : Постоянный
Битрейт                                  : 1509 Кбит/сек
Каналы                                   : 6 каналов
Расположение каналов                     : Front: L C R, Side: L R, LFE
Частота                                  : 48,0 КГц
Битовая глубина                          : 24 бит
Метод сжатия                             : С потерями
Размер потока                            : 1,30 Гбайт (17%)
Заголовок                                : DTS 5.1 @ 1536 kbps
Язык                                     : Chinese
Default                                  : Нет
Forced                                   : Нет
Текст #1
Идентификатор                            : 4
Формат                                   : UTF-8
Идентификатор кодека                     : S_TEXT/UTF8
Идентификатор кодека/Информация          : UTF-8 Plain Text
Язык                                     : Russian
Default                                  : Нет
Forced                                   : Нет
Текст #2
Идентификатор                            : 5
Формат                                   : UTF-8
Идентификатор кодека                     : S_TEXT/UTF8
Идентификатор кодека/Информация          : UTF-8 Plain Text
Язык                                     : English
Default                                  : Нет
Forced                                   : Нет
Скриншоты:

[Цитировать]

Топик был перенесен из форума Новинки кинопроката (HD Video) в форум Зарубежное кино (HD Video)
Bootch



Показать сообщения:    

Текущее время: 11-Дек 11:08

Часовой пояс: UTC + 3


Вы не можете начинать темы
Вы не можете отвечать на сообщения
Вы не можете редактировать свои сообщения
Вы не можете удалять свои сообщения
Вы не можете голосовать в опросах
Вы не можете прикреплять файлы к сообщениям
Вы не можете скачивать файлы

!ВНИМАНИЕ!
Сайт не предоставляет электронные версии произведений, а занимается лишь коллекционированием и каталогизацией ссылок, присылаемых и публикуемых на форуме нашими читателями. Если вы являетесь правообладателем какого-либо представленного материала и не желаете, чтобы ссылка на него находилась в нашем каталоге, свяжитесь с нами, и мы незамедлительно удалим ее. Файлы для обмена на трекере предоставлены пользователями сайта, и администрация не несет ответственности за их содержание. Просьба не заливать файлы, защищенные авторскими правами, а также файлы нелегального содержания!