[ Сегодня идет свободное скачивание без начисления Download ]


Статистика раздачи
Нет
 
   
 
Top  
 
 
Красные дубы - Первый сезон- Год выпуска: 2014-2015
Страна: США
Жанр: комедияПродолжительность: 00:30:00
Перевод: Профессиональный (двухголосый закадровый) Ozz
Режиссёр: Дэвид Гордон Грин / David Gordon Green
В ролях: Крэйг Робертс, Дженнифер Грей, Эннис Эсмер, Гейдж Голайтли, Оливер Купер, Джош Мейерс, Александра Соша, Ричард Кайнд, Пол Райзер, Ник Бэйли и др.
Описание: Действие сериала происходит в 1985 году в пригороде Нью-Джерси, где расположен загородный клуб «Красные дубы». Главный герой — студент колледжа Дэвид Майерс, который подрабатывает в клубе ассистентом. Так он открывает для себя новую жизнь, первые влюбленности и взросление, попутно пытаясь наладить отношения со своей семьей.-
-
Озвучка: Алексей Серёгин и Елена Каламурза
Перевод: Trotteville, Василий Мерзляков
Качество: WEBRip 4K UHD
Формат: MKV
Видео: x264, 3840x2160 (16:9), 24fps, ~35 Mbps
Аудио #1: Russian 48.0 KHz, AC3, 2 channels, 192 Kbps |Ozz|
Аудио #2: English 48.0 KHz, AC3, 2 channels, 640 Kbps
Субтитры: русские (Trotteville, Василий Мерзляков)

MediaInfo

General
Unique ID : 245214714852116541405240749863474761113 (0xB87AA2DEE875C618A9CD207C89770D99)
Complete name : C:\Red Oaks Season 1 Ozz\Red Oaks.S01E01.2160p.WEBRip.Ozz.mkv
Format : Matroska
Format version : Version 4 / Version 2
File size : 7.66 GiB
Duration : 29mn 45s
Overall bit rate : 36.9 Mbps
Movie name : Красные дубы | Red Oaks (S01E01) Ozz
Encoded date : UTC 2015-12-06 06:54:09
Writing application : mkvmerge v6.1.0 ('Old Devil') built on Mar 4 2013 09:10:42
Writing library : libebml v1.3.0 + libmatroska v1.4.0
Attachment : Yes
Video
ID : 1
Format : AVC
Format/Info : Advanced Video Codec
Format profile : High 10@L5.2
Format settings, CABAC : Yes
Format settings, ReFrames : 5 frames
Codec ID : V_MPEG4/ISO/AVC
Duration : 29mn 46s
Bit rate : 35.3 Mbps
Width : 3 840 pixels
Height : 2 160 pixels
Display aspect ratio : 16:9
Frame rate mode : Constant
Frame rate : 24.000 fps
Color space : YUV
Chroma subsampling : 4:2:0
Bit depth : 10 bits
Scan type : Progressive
Bits/(Pixel*Frame) : 0.177
Stream size : 7.34 GiB (96%)
Title : whip93
Writing library : x264 core 146 r2538 121396c
Encoding settings : cabac=1 / ref=5 / deblock=1:-2:-2 / analyse=0x3:0x133 / me=umh / subme=10 / psy=1 / psy_rd=1.00:0.15 / mixed_ref=1 / me_range=48 / chroma_me=1 / trellis=2 / 8x8dct=1 / cqm=0 / deadzone=21,11 / fast_pskip=1 / chroma_qp_offset=-3 / threads=12 / lookahead_threads=2 / sliced_threads=0 / nr=0 / decimate=0 / interlaced=0 / bluray_compat=0 / constrained_intra=0 / bframes=8 / b_pyramid=2 / b_adapt=2 / b_bias=0 / direct=3 / weightb=1 / open_gop=0 / weightp=2 / keyint=240 / keyint_min=24 / scenecut=40 / intra_refresh=0 / rc_lookahead=60 / rc=crf / mbtree=1 / crf=18.0 / qcomp=0.70 / qpmin=0 / qpmax=81 / qpstep=4 / vbv_maxrate=300000 / vbv_bufsize=300000 / crf_max=0.0 / nal_hrd=none / filler=0 / ip_ratio=1.30 / aq=1:0.90
Language : English
Default : Yes
Forced : No
Audio #1
ID : 2
Format : AC-3
Format/Info : Audio Coding 3
Mode extension : CM (complete main)
Format settings, Endianness : Big
Codec ID : A_AC3
Duration : 29mn 45s
Bit rate mode : Constant
Bit rate : 192 Kbps
Channel(s) : 2 channels
Channel positions : Front: L R
Sampling rate : 48.0 KHz
Bit depth : 16 bits
Compression mode : Lossy
Stream size : 40.9 MiB (1%)
Title : DVO (Ozz)
Language : Russian
Default : Yes
Forced : No
Audio #2
ID : 3
Format : AC-3
Format/Info : Audio Coding 3
Mode extension : CM (complete main)
Format settings, Endianness : Big
Codec ID : A_AC3
Duration : 29mn 45s
Bit rate mode : Constant
Bit rate : 640 Kbps
Channel(s) : 2 channels
Channel positions : Front: L R
Sampling rate : 48.0 KHz
Bit depth : 16 bits
Compression mode : Lossy
Stream size : 136 MiB (2%)
Language : English
Default : No
Forced : No
Text
ID : 4
Format : UTF-8
Codec ID : S_TEXT/UTF8
Codec ID/Info : UTF-8 Plain Text
Title : Trotteville
Language : Russian
Default : No
Forced : No
Menu
00:00:00.000 : en:We never loved each other
00:02:40.286 : en:Totally my fault
00:03:28.000 : en:Red Oaks
00:03:59.573 : en:I'm not staff
00:05:10.311 : en:Hi, sweetie
00:06:02.356 : en:I'm the new assistant tennis pro
00:06:35.637 : en:Good morning, Mr. Getty
00:07:07.127 : en:Countach
00:07:32.652 : en:So why NYU?
00:09:07.454 : en:Wanna hit?
00:09:31.232 : en:Good game
00:11:16.299 : en:Beautiful eyes
00:12:01.888 : en:How's your dad?
00:12:39.494 : en:Bye, sweetie
00:12:54.144 : en:Which one of you is Wheeler?
00:14:04.087 : en:Caused a bit of a problem
00:15:20.208 : en:Barry is just a friend
00:16:28.609 : en:Hey, Misty
00:18:02.458 : en:What are you thinking about?
00:19:11.054 : en:You deserve better
00:20:05.946 : en:Driver's Ed class
00:20:28.379 : en:Merry-go-round
00:21:41.881 : en:He wants me to fire you
00:23:31.943 : en:Good morning, gentlemen
00:24:06.360 : en:Get the balls
00:26:25.779 : en:Don't play modest
00:27:01.908 : en:Poetry in motion
00:27:44.941 : en:He's my father
00:28:41.092 : en:End Credits

Скриншоты

[Цитировать]



Показать сообщения:    

Текущее время: 25-Июн 16:38

Часовой пояс: UTC + 6


Вы не можете начинать темы
Вы не можете отвечать на сообщения
Вы не можете редактировать свои сообщения
Вы не можете удалять свои сообщения
Вы не можете голосовать в опросах
Вы не можете прикреплять файлы к сообщениям
Вы не можете скачивать файлы

!ВНИМАНИЕ!
Сайт не предоставляет электронные версии произведений, а занимается лишь коллекционированием и каталогизацией ссылок, присылаемых и публикуемых на форуме нашими читателями. Если вы являетесь правообладателем какого-либо представленного материала и не желаете, чтобы ссылка на него находилась в нашем каталоге, свяжитесь с нами, и мы незамедлительно удалим ее. Файлы для обмена на трекере предоставлены пользователями сайта, и администрация не несет ответственности за их содержание. Просьба не заливать файлы, защищенные авторскими правами, а также файлы нелегального содержания!