[ Сегодня идет свободное скачивание без начисления Download ]


Статистика раздачи
Нет
 
   
 
 
 
-Вселенная: 7 чудес Солнечной системы / Universe: 7 Wonders of the Solar System (2010) BDRip- Русское название: Вселенная: 7 чудес Солнечной системы
Оригинальное название: Universe: 7 Wonders of the Solar System
Режиссер: Лаура Верклан
Год выпуска: 2010
Жанр: Документальный
Описание:
В этом фильме с помощью современной компьютерной графики и, основываясь на передовых исследованиях в области космоса, создатели фильма смогли воссоздать то, что происходит на других планетах, в других галактиках, вообразить какие формы жизни могли бы развиться в других атмосферах. Вы сможете увидеть космические бедствия, параллельные вселенные, скорость света и узнать многое другое о тайнах космоса.
Продолжительность: 00:44:04
Перевод: Одноголосый закадровый, профессиональный
Видеокодек: Xvid
Битрейт видео: ~2 204 Kbps
Размер кадра: 704x400 (16:9)
Качество видео: BDRip
Аудио:
Русский: 448 Кбит/сек, 48.0 КГц, 6ch
Английский: 448 Кбит/сек, 48.0 КГц, 6ch

MediaInfo:

General
Complete name : D:\Vselennaja_7Chudes_.avi
Format : AVI
Format/Info : Audio Video Interleave
File size : 982 MiB
Duration : 44mn 4s
Overall bit rate : 3 114 Kbps
Movie name : Vselennaja.7.Chudes.Solnechnoj.Sistemy.2010.DUAL.BDRip.XviD.AC3.-HELLYWOOD
Director : Gummy
Writing application : VirtualDubMod 1.5.10.2 (build 2542/release)
Copyright : http://forum.hellywood.ru/forum.php
Video
ID : 0
Format : MPEG-4 Visual
Format profile : Advanced [email protected]
Format settings, BVOP : Yes
Format settings, QPel : No
Format settings, GMC : No warppoints
Format settings, Matrix : Custom
Codec ID : XVID
Codec ID/Hint : XviD
Duration : 44mn 4s
Bit rate : 2 204 Kbps
Width : 704 pixels
Height : 400 pixels
Display aspect ratio : 16:9
Frame rate : 23.976 fps
Color space : YUV
Chroma subsampling : 4:2:0
Bit depth : 8 bits
Scan type : Progressive
Bits/(Pixel*Frame) : 0.326
Stream size : 695 MiB (71%)
Writing library : XviD 65
Audio #1
ID : 1
Format : AC-3
Format/Info : Audio Coding 3
Mode extension : CM (complete main)
Codec ID : 2000
Duration : 44mn 4s
Bit rate mode : Constant
Bit rate : 448 Kbps
Channel(s) : 6 channels
Channel positions : Front: L C R, Side: L R, LFE
Sampling rate : 48.0 KHz
Bit depth : 16 bits
Stream size : 141 MiB (14%)
Alignment : Split accross interleaves
Interleave, duration : 42 ms (1.00 video frame)
Interleave, preload duration : 500 ms
Audio #2
ID : 2
Format : AC-3
Format/Info : Audio Coding 3
Mode extension : CM (complete main)
Codec ID : 2000
Duration : 44mn 4s
Bit rate mode : Constant
Bit rate : 448 Kbps
Channel(s) : 6 channels
Channel positions : Front: L C R, Side: L R, LFE
Sampling rate : 48.0 KHz
Bit depth : 16 bits
Stream size : 141 MiB (14%)
Alignment : Split accross interleaves
Interleave, duration : 42 ms (1.00 video frame)
Interleave, preload duration : 500 ms
Скриншоты:

Время раздачи: с 10:00 до 20:00

[Цитировать]



Показать сообщения:    

Текущее время: 06-Дек 05:57

Часовой пояс: UTC + 3


Вы не можете начинать темы
Вы не можете отвечать на сообщения
Вы не можете редактировать свои сообщения
Вы не можете удалять свои сообщения
Вы не можете голосовать в опросах
Вы не можете прикреплять файлы к сообщениям
Вы не можете скачивать файлы

!ВНИМАНИЕ!
Сайт не предоставляет электронные версии произведений, а занимается лишь коллекционированием и каталогизацией ссылок, присылаемых и публикуемых на форуме нашими читателями. Если вы являетесь правообладателем какого-либо представленного материала и не желаете, чтобы ссылка на него находилась в нашем каталоге, свяжитесь с нами, и мы незамедлительно удалим ее. Файлы для обмена на трекере предоставлены пользователями сайта, и администрация не несет ответственности за их содержание. Просьба не заливать файлы, защищенные авторскими правами, а также файлы нелегального содержания!