[ Сегодня идет свободное скачивание без начисления Download ]


Статистика раздачи
Нет
 
   
 
 
 
-Жизнь в невесомости / Vivre en apesanteur/Life in Weightlesness (2005) TVRip- Русское название: Жизнь в невесомости
Оригинальное название: Vivre en apesanteur/Life in Weightlesness
Режиссер / Телекомпания: Этьен Бланшон
Год выпуска: 2005
Жанр: Документальный
Описание:
Космонавты - первые люди, получившие опыт внеземной жизни. Освободившись от привычного веса, они попадают в неестественное для человека состояние. Последствия - космическая болезнь движения, тяжелая голова, дезориентация. А лучшее понимание воздействия невесомости на организм человека является одной из основополагающих задач космической медицины.А для работы в этой области исследований,лучше проверить себя, свое собственное тело, эффект невесомости.
В этом фильме рассказывается о невесомости, что человек чувствует входя в это состояние.
Каждый год Европейское космическое агентство создает условия для студентов престижных университетов, чтобы они смогли проводить свои исследования в невесомости.
Очень интересный фильм, рассказывающий как ведут себя Люди, животные, рыбы, растения в невесомости
и как происходят ТАМ обычные для нас явления! там всё по-другому! Смотрите! Не пожалеете!
Продолжительность: 00:51:57
Перевод: Одноголосый закадровый, профессиональный
Видеокодек: DivX 5
Битрейт видео: ~1 301 Kbps
Размер кадра: 720x576 (5:4)
Качество видео: TVRip
Аудиокодек: MPEG Layer 3
Битрейт аудио: 192 Кбит/сек, 48,0 КГц, 2ch

MediaInfo:

General
Complete name : D:\Жизнь в невесомости (Vivre en apesanteur).avi
Format : AVI
Format/Info : Audio Video Interleave
File size : 558 MiB
Duration : 51mn 57s
Overall bit rate : 1 503 Kbps
Writing library : VirtualDub-MPEG2 build 24600/release
Video
ID : 0
Format : MPEG-4 Visual
Format settings, BVOP : Yes
Format settings, QPel : No
Format settings, GMC : No warppoints
Format settings, Matrix : Default (H.263)
Muxing mode : Packed bitstream
Codec ID : DX50
Codec ID/Hint : DivX 5
Duration : 51mn 57s
Bit rate : 1 301 Kbps
Width : 720 pixels
Height : 576 pixels
Display aspect ratio : 5:4
Frame rate : 25.000 fps
Standard : PAL
Color space : YUV
Chroma subsampling : 4:2:0
Bit depth : 8 bits
Scan type : Progressive
Bits/(Pixel*Frame) : 0.125
Stream size : 483 MiB (87%)
Writing library : DivX 6.6.1
Audio
ID : 1
Format : MPEG Audio
Format version : Version 1
Format profile : Layer 3
Mode : Joint stereo
Codec ID : 55
Codec ID/Hint : MP3
Duration : 51mn 57s
Bit rate mode : Constant
Bit rate : 192 Kbps
Channel(s) : 2 channels
Sampling rate : 48.0 KHz
Stream size : 71.4 MiB (13%)
Alignment : Split accross interleaves
Interleave, duration : 40 ms (1.00 video frame)
Interleave, preload duration : 500 ms
Скриншоты:

Время раздачи: с 10:00 до 20:00

[Цитировать]



Показать сообщения:    

Текущее время: 11-Дек 15:00

Часовой пояс: UTC + 3


Вы не можете начинать темы
Вы не можете отвечать на сообщения
Вы не можете редактировать свои сообщения
Вы не можете удалять свои сообщения
Вы не можете голосовать в опросах
Вы не можете прикреплять файлы к сообщениям
Вы не можете скачивать файлы

!ВНИМАНИЕ!
Сайт не предоставляет электронные версии произведений, а занимается лишь коллекционированием и каталогизацией ссылок, присылаемых и публикуемых на форуме нашими читателями. Если вы являетесь правообладателем какого-либо представленного материала и не желаете, чтобы ссылка на него находилась в нашем каталоге, свяжитесь с нами, и мы незамедлительно удалим ее. Файлы для обмена на трекере предоставлены пользователями сайта, и администрация не несет ответственности за их содержание. Просьба не заливать файлы, защищенные авторскими правами, а также файлы нелегального содержания!