[ Сегодня идет свободное скачивание без начисления Download ]


Статистика раздачи
Нет
 
   
 
 
 
-Потерянный "МИР" (2007) TVRip- Название: Потерянный "МИР"
Режиссер / Телекомпания: Телестудия Роскосмос
Год выпуска: 2007
Жанр: Документальный
Описание:
Фильм рассказывет о станции "МИР"- некогда национальной гордости страны,
превратившейся теперь в груду обломков на дне океана. Кому выгодно было
разрушение станции? Увы не только зарубежным конкурентам, но и определенным
людям внутри страны,которые поимели от этого свои выгоды.О последних днях станции,
и ее прощальном мировом фейерверке, символично завершившим ЭРУ СОВЕТСКОГО КОСМОСА!
Продолжительность: 00:41:11
Видеокодек: Xvid
Битрейт видео: ~1 407 Kbps
Размер кадра: 640x480 (4:3)
Качество видео: TVRip
Аудиокодек: MP3
Битрейт аудио: 112Kbps, 44.1 KHz, 2ch

MediaInfo:

General
Complete name : D:\MirFall.avi
Format : AVI
Format/Info : Audio Video Interleave
File size : 449 MiB
Duration : 41mn 11s
Overall bit rate : 1 526 Kbps
Writing application : VirtualDubMod 1.5.4.1 (build 2178/release)
Writing library : VirtualDubMod build 2178/release
Video
ID : 0
Format : MPEG-4 Visual
Format profile : Advanced Simple@L5
Format settings, BVOP : Yes
Format settings, QPel : No
Format settings, GMC : No warppoints
Format settings, Matrix : Custom
Codec ID : XVID
Codec ID/Hint : XviD
Duration : 41mn 11s
Bit rate : 1 407 Kbps
Width : 640 pixels
Height : 480 pixels
Display aspect ratio : 4:3
Frame rate : 25.000 fps
Color space : YUV
Chroma subsampling : 4:2:0
Bit depth : 8 bits
Scan type : Progressive
Bits/(Pixel*Frame) : 0.183
Stream size : 414 MiB (92%)
Writing library : XviD 1.2.0SMP (UTC 2006-01-08)
Audio
ID : 1
Format : MPEG Audio
Format version : Version 1
Format profile : Layer 3
Mode : Joint stereo
Mode extension : MS Stereo
Codec ID : 55
Codec ID/Hint : MP3
Duration : 41mn 10s
Bit rate mode : Constant
Bit rate : 112 Kbps
Channel(s) : 2 channels
Sampling rate : 44.1 KHz
Video delay : 14ms
Stream size : 33.0 MiB (7%)
Alignment : Split accross interleaves
Interleave, duration : 80 ms (2.00 video frames)
Interleave, preload duration : 500 ms
Writing library : LAME3.97 (beta)ЄЄЄЄЄ
Скриншоты:

[Цитировать]



Показать сообщения:    

Текущее время: 09-Дек 06:56

Часовой пояс: UTC + 3


Вы не можете начинать темы
Вы не можете отвечать на сообщения
Вы не можете редактировать свои сообщения
Вы не можете удалять свои сообщения
Вы не можете голосовать в опросах
Вы не можете прикреплять файлы к сообщениям
Вы не можете скачивать файлы

!ВНИМАНИЕ!
Сайт не предоставляет электронные версии произведений, а занимается лишь коллекционированием и каталогизацией ссылок, присылаемых и публикуемых на форуме нашими читателями. Если вы являетесь правообладателем какого-либо представленного материала и не желаете, чтобы ссылка на него находилась в нашем каталоге, свяжитесь с нами, и мы незамедлительно удалим ее. Файлы для обмена на трекере предоставлены пользователями сайта, и администрация не несет ответственности за их содержание. Просьба не заливать файлы, защищенные авторскими правами, а также файлы нелегального содержания!