[ Today is free to download without increasing Download ]

DL-List and Torrent activity
-Потерянный "МИР" (2007) TVRip- Название: Потерянный "МИР"
Режиссер / Телекомпания: Телестудия Роскосмос
Год выпуска: 2007
Жанр: Документальный
Фильм рассказывет о станции "МИР"- некогда национальной гордости страны,
превратившейся теперь в груду обломков на дне океана. Кому выгодно было
разрушение станции? Увы не только зарубежным конкурентам, но и определенным
людям внутри страны,которые поимели от этого свои выгоды.О последних днях станции,
и ее прощальном мировом фейерверке, символично завершившим ЭРУ СОВЕТСКОГО КОСМОСА!
Продолжительность: 00:41:11
Видеокодек: Xvid
Битрейт видео: ~1 407 Kbps
Размер кадра: 640x480 (4:3)
Качество видео: TVRip
Аудиокодек: MP3
Битрейт аудио: 112Kbps, 44.1 KHz, 2ch


Complete name : D:\MirFall.avi
Format : AVI
Format/Info : Audio Video Interleave
File size : 449 MiB
Duration : 41mn 11s
Overall bit rate : 1 526 Kbps
Writing application : VirtualDubMod (build 2178/release)
Writing library : VirtualDubMod build 2178/release
ID : 0
Format : MPEG-4 Visual
Format profile : Advanced Simple@L5
Format settings, BVOP : Yes
Format settings, QPel : No
Format settings, GMC : No warppoints
Format settings, Matrix : Custom
Codec ID : XVID
Codec ID/Hint : XviD
Duration : 41mn 11s
Bit rate : 1 407 Kbps
Width : 640 pixels
Height : 480 pixels
Display aspect ratio : 4:3
Frame rate : 25.000 fps
Color space : YUV
Chroma subsampling : 4:2:0
Bit depth : 8 bits
Scan type : Progressive
Bits/(Pixel*Frame) : 0.183
Stream size : 414 MiB (92%)
Writing library : XviD 1.2.0SMP (UTC 2006-01-08)
ID : 1
Format : MPEG Audio
Format version : Version 1
Format profile : Layer 3
Mode : Joint stereo
Mode extension : MS Stereo
Codec ID : 55
Codec ID/Hint : MP3
Duration : 41mn 10s
Bit rate mode : Constant
Bit rate : 112 Kbps
Channel(s) : 2 channels
Sampling rate : 44.1 KHz
Video delay : 14ms
Stream size : 33.0 MiB (7%)
Alignment : Split accross interleaves
Interleave, duration : 80 ms (2.00 video frames)
Interleave, preload duration : 500 ms
Writing library : LAME3.97 (beta)ЄЄЄЄЄ


Display posts:    

Current time is: 26-Oct 03:30

All times are UTC + 3

You cannot post new topics in this forum
You cannot reply to topics in this forum
You cannot edit your posts in this forum
You cannot delete your posts in this forum
You cannot vote in polls in this forum
You cannot attach files in this forum
You cannot download files in this forum

The site does not give electronic versions of products, and is engaged only in a collecting and cataloguing of the references sent and published at a forum by our readers. If you are the legal owner of any submitted material and do not wish that the reference to it was in our catalogue, contact us and we shall immediately remove her. Files for an exchange on tracker are given by users of a site, and the administration does not bear the responsibility for their maintenance. The request to not fill in the files protected by copyrights, and also files of the illegal maintenance!