[ Сегодня идет свободное скачивание без начисления Download ]


Статистика раздачи
Нет
 
   
 
 
 
-Катание по Марсу / Roving Mars (2006) BDRip-«A Whole New World Awaits.»- Русское название: Катание по Марсу
Оригинальное название: Roving Mars
Режиссер / Телекомпания: IMAX
Год выпуска: 2006
Жанр: Документальный
Описание:
Фильм повествует о программе NASA по запуску 2 марсоходов, каждый из которых стал уникальным роботизированным механизмом, чьи технологии превзошли умственные способности любого человека, названия которым «Дух» и «Возможность». Их послали на Марс, где они успешно приземлились летом 2003 года.- -Продолжительность: 00:39:57
Перевод: Одноголосый закадровый, профессиональный
Язык субтитров: Английский
Вид субтитров: Вшитые
Видеокодек: MPEG-4 AVC/H.264
Битрейт видео: ~5750 kbps
Размер кадра: 1276x720
Качество видео: BDRip
Аудио#1: Russian: 48 kHz/16-bit, DTS, 3/2 (L,C,R,l,r) + LFE ch, ~1536.00 kbps avg |Одноголосый закадровый, студия "Омикрон"|
Аудио#2: English: 48 kHz/16-bit, DTS, 3/2 (L,C,R,l,r) + LFE ch, ~1536.00 kbps avg
Сэмпл: Скачать
-

MI

General
Unique ID                                : 180598638922765922589799104077916584009 (0x87DE085C844894FA9B9EDEC5E91CB849)
Complete name                            : C:\Users\Сергей\Downloads\IMAX.Roving.Mars.2006.720p.BluRay..mkv
Format                                   : Matroska
Format version                           : Version 2
File size                                : 2.45 GiB
Duration                                 : 39mn 56s
Overall bit rate                         : 8 772 Kbps
Movie name                               : IMAX - Born to Be Wild (2011)
Encoded date                             : UTC 2012-04-22 21:04:56
Writing application                      : mkvmerge v3.2.0 ('Beginnings') built on Feb 12 2010 16:46:17
Writing library                          : libebml v0.7.9 + libmatroska v0.8.1
Video
ID                                       : 1
Format                                   : AVC
Format/Info                              : Advanced Video Codec
Format profile                           : [url=mailto:High@L4.1]High@L4.1[/url]
Format settings, CABAC                   : Yes
Format settings, ReFrames                : 9 frames
Codec ID                                 : V_MPEG4/ISO/AVC
Duration                                 : 39mn 56s
Bit rate                                 : 5 750 Kbps
Width                                    : 1 276 pixels
Height                                   : 720 pixels
Display aspect ratio                     : 16:9
Frame rate                               : 23.976 fps
Color space                              : YUV
Chroma subsampling                       : 4:2:0
Bit depth                                : 8 bits
Scan type                                : Progressive
Bits/(Pixel*Frame)                       : 0.261
Stream size                              : 1.56 GiB (64%)
Title                                    : IMAX - Born to Be Wild (2011) - Release for HDCLUB
Writing library                          : x264 core 116 r2074 2641b9e
Encoding settings                        : cabac=1 / ref=9 / deblock=1:-3:-3 / analyse=0x3:0x133 / me=umh / subme=10 / psy=1 / psy_rd=1.15:0.10 / mixed_ref=1 / me_range=32 / chroma_me=1 / trellis=2 / 8x8dct=1 / cqm=0 / deadzone=21,11 / fast_pskip=0 / chroma_qp_offset=-3 / threads=12 / sliced_threads=0 / nr=0 / decimate=0 / interlaced=0 / bluray_compat=0 / constrained_intra=0 / bframes=7 / b_pyramid=2 / b_adapt=2 / b_bias=0 / direct=3 / weightb=1 / open_gop=0 / weightp=2 / keyint=250 / keyint_min=23 / scenecut=40 / intra_refresh=0 / rc_lookahead=60 / rc=2pass / mbtree=1 / bitrate=5750 / ratetol=1.0 / qcomp=0.75 / qpmin=0 / qpmax=69 / qpstep=4 / cplxblur=20.0 / qblur=0.5 / vbv_maxrate=50000 / vbv_bufsize=62500 / nal_hrd=none / ip_ratio=1.40 / aq=1:0.80
Language                                 : English
Default                                  : No
Forced                                   : No
Matrix coefficients                      : BT.709-5, BT.1361, IEC 61966-2-4 709, SMPTE RP177
Audio #1
ID                                       : 2
Format                                   : DTS
Format/Info                              : Digital Theater Systems
Codec ID                                 : A_DTS
Duration                                 : 39mn 56s
Bit rate mode                            : Constant
Bit rate                                 : 1 510 Kbps
Channel(s)                               : 6 channels
Channel positions                        : Front: L C R, Side: L R, LFE
Sampling rate                            : 48.0 KHz
Bit depth                                : 16 bits
Compression mode                         : Lossy
Stream size                              : 431 MiB (17%)
Title                                    : DTS 5.1 @ 1536 kbps - Одноголосый закадровый, студия "Омикрон"
Language                                 : Russian
Default                                  : Yes
Forced                                   : No
Audio #2
ID                                       : 3
Format                                   : DTS
Format/Info                              : Digital Theater Systems
Codec ID                                 : A_DTS
Duration                                 : 39mn 56s
Bit rate mode                            : Constant
Bit rate                                 : 1 510 Kbps
Channel(s)                               : 6 channels
Channel positions                        : Front: L C R, Side: L R, LFE
Sampling rate                            : 48.0 KHz
Bit depth                                : 16 bits
Compression mode                         : Lossy
Stream size                              : 431 MiB (17%)
Title                                    : DTS 5.1 @ 1536 kbps
Language                                 : English
Default                                  : No
Forced                                   : No
Text
ID                                       : 4
Format                                   : UTF-8
Codec ID                                 : S_TEXT/UTF8
Codec ID/Info                            : UTF-8 Plain Text
Language                                 : English
Default                                  : No
Forced                                   : No
Menu
00:00:00.000                             : en:RovingMars
00:07:47.425                             : en:Spirit and Opportunity
00:13:27.932                             : en:Navigating the Terrain
00:15:52.952                             : en:First Launch
00:24:19.917                             : en:Landing Spirit
00:29:14.419                             : en:Images from Mars
00:32:54.556                             : en:Opportunity Lands
00:33:59.204                             : en:Spirit's Tough Climb
00:36:51.960                             : en:The Search for Life
00:37:59.694                             : en:End Credits
-Скриншоты из фильма:

[Цитировать]



Показать сообщения:    

Текущее время: 09-Дек 10:47

Часовой пояс: UTC + 3


Вы не можете начинать темы
Вы не можете отвечать на сообщения
Вы не можете редактировать свои сообщения
Вы не можете удалять свои сообщения
Вы не можете голосовать в опросах
Вы не можете прикреплять файлы к сообщениям
Вы не можете скачивать файлы

!ВНИМАНИЕ!
Сайт не предоставляет электронные версии произведений, а занимается лишь коллекционированием и каталогизацией ссылок, присылаемых и публикуемых на форуме нашими читателями. Если вы являетесь правообладателем какого-либо представленного материала и не желаете, чтобы ссылка на него находилась в нашем каталоге, свяжитесь с нами, и мы незамедлительно удалим ее. Файлы для обмена на трекере предоставлены пользователями сайта, и администрация не несет ответственности за их содержание. Просьба не заливать файлы, защищенные авторскими правами, а также файлы нелегального содержания!