[ Сегодня идет свободное скачивание без начисления Download ]


Статистика раздачи
Нет
 
   
 
 
 
-BBC: Космический челнок. Разведчик горизонта / The Space Shuttle. A Horizon Guide (2010) SATRip- Русское название: BBC: Космический челнок. Разведчик горизонта
Оригинальное название: The Space Shuttle. A Horizon Guide
Режиссер: Жак Фарнам
Год выпуска: 2010
Жанр: Документальный
Описание:
Начиная с самого первого запуска в 1981 году космическая транспортная система "The Space Shuttle" была и остается по сей день самой дорогой и самой амбициозной программой НАСА. Стоимость 1-го запуска - 450 миллионов доларов, 135 полетов, 355 астронавтов и космонавтов, 21152 витка вокруг Земли и почти 873 млн. км. в пути. История Спейс шаттла это история головокружительных взлетов и ошеломляющих падений, потрясших этот мир.
Продолжительность: 00:58:57
Перевод: Двуголосый закадровый, профессиональный
Видеокодек: Xvid
Битрейт видео: 1 369 Kbps
Размер кадра: 640x480 (4:3)
Качество видео: SATRip
Аудиокодек: MPEG Layer 3
Битрейт аудио: 128 Кбит/сек, 48,0 КГц, 2ch

MediaInfo:

General
Complete name : D:\Kosmicheskij.chelnok.Razvedchik.gorizonta.2010.XviD.SATRip.avi
Format : AVI
Format/Info : Audio Video Interleave
File size : 635 MiB
Duration : 58mn 57s
Overall bit rate : 1 507 Kbps
Writing application : VirtualDubMod 1.5.10.3 | www.virtualdub-fr.org || (build 2550/release)
Writing library : VirtualDubMod build 2550/release
Video
ID : 0
Format : MPEG-4 Visual
Format profile : Advanced Simple@L5
Format settings, BVOP : Yes
Format settings, QPel : No
Format settings, GMC : No warppoints
Format settings, Matrix : Default (H.263)
Codec ID : XVID
Codec ID/Hint : XviD
Duration : 58mn 57s
Bit rate : 1 369 Kbps
Width : 640 pixels
Height : 480 pixels
Display aspect ratio : 4:3
Frame rate : 25.000 fps
Color space : YUV
Chroma subsampling : 4:2:0
Bit depth : 8 bits
Scan type : Progressive
Bits/(Pixel*Frame) : 0.178
Stream size : 577 MiB (91%)
Writing library : XviD 64
Audio
ID : 1
Format : MPEG Audio
Format version : Version 1
Format profile : Layer 3
Codec ID : 55
Codec ID/Hint : MP3
Duration : 58mn 57s
Bit rate mode : Constant
Bit rate : 128 Kbps
Channel(s) : 2 channels
Sampling rate : 48.0 KHz
Stream size : 54.0 MiB (8%)
Alignment : Aligned on interleaves
Interleave, duration : 40 ms (1.00 video frame)
Interleave, preload duration : 504 ms
Скриншоты:

[Цитировать]



Показать сообщения:    

Текущее время: 09-Дек 16:38

Часовой пояс: UTC + 3


Вы не можете начинать темы
Вы не можете отвечать на сообщения
Вы не можете редактировать свои сообщения
Вы не можете удалять свои сообщения
Вы не можете голосовать в опросах
Вы не можете прикреплять файлы к сообщениям
Вы не можете скачивать файлы

!ВНИМАНИЕ!
Сайт не предоставляет электронные версии произведений, а занимается лишь коллекционированием и каталогизацией ссылок, присылаемых и публикуемых на форуме нашими читателями. Если вы являетесь правообладателем какого-либо представленного материала и не желаете, чтобы ссылка на него находилась в нашем каталоге, свяжитесь с нами, и мы незамедлительно удалим ее. Файлы для обмена на трекере предоставлены пользователями сайта, и администрация не несет ответственности за их содержание. Просьба не заливать файлы, защищенные авторскими правами, а также файлы нелегального содержания!