[ Сегодня идет свободное скачивание без начисления Download ]


Статистика раздачи
Нет
 
   
 
 
 
-Все тайны космоса (4 серии) / Space Files (2004) DVD5- Русское название: Все тайны космоса
Оригинальное название: Space Files
Режиссер / Телекомпания: Дэвид Тейлор / Великобритания
Год выпуска: 2004
Жанр: Документальный
Описание:
Космическое пространство во все века волновало умы Человечества!
У вас в руках все тайны Космоса!
Каждая десятиминутная серия этого альманаха захватывающе повествует о нашей космической обители, представляет ясный, реалистичный и прекрасно иллюстрированный рассказ о планетах и спутниках, о Солнце, о галактике и Вселенной за ее пределами. Хороший текст, научная выверенность, превосходный видеоряд развивают и обучают самым основам знаний о космосе и астрономии.- -Продолжительность: 03:05:56( серия ~40мин)
Перевод: Одноголосый закадровый, профессиональный

Вселенная от начала до конца. Часть 1

1. От ноля к миллиардам
2. Галактика - млечный путь
3. Телескоп - свежий взгляд на вселенную
4. Даль - бесконечность и строение
5. Рентген - невидимая астрономия, гамма - излучение на радио
6. Черная дыра - черные дыры и темная материя
7. Путь в бесконечность - холодное и одинокое послание из космоса

Солнечная система. Исследование иных планет. Часть 2

1. Солнце - источник энергии солнечной системы
2. Меркурий - ближайшая к Солнцу орбита
3. Венера - планета из ада
4. Земля - наш дом
5. Луна - наш товарищ в космосе
6. Марс - красная планета

Солнечная система. Исследование иных планет. Часть 3

1. Астероид - астероиды, метеоры и столкновения
2. Юпитер - "царь - планета"
3. Сатурн - властелин колец
4. Уран и Нептун - далекие газовые гиганты
5. Плутон - самая далекая планета
6. Комета - комета Купера, комета Орта

Человек и космос. Мечта и поиск. Часть 4

1. Солнечное затмение и северное сияние
2. Ночное небо - ориентация по звездам
3. Открытие - история астрономии
4. Куда дальше? - человек на луне, следующая остановка Марс
5. Орбита - наблюдение за Землей из космоса
6. Большие надежды - шаттл и международная космическая станция
7. Поиск внеземной жизни
Видеокодек: MPEG 2, PAL
Битрейт видео: max 7000 kbps
Размер кадра: 720x576
Качество видео: DVD5
Битрейт аудио:
Аудио#1: AC3, 192 kb/s VBR, 48 kHz, Русский
Аудио#2: AC3, 192 kb/s VBR, 48 kHz, English

Технические параметры всех файлов одинаковы.MediaInfo

Формат : MPEG-PS
Размер файла : 1024 Мбайт
Продолжительность : 9 м. 20 с.
Общий поток : 15,3 Мбит/сек
Видео
Идентификатор : 224 (0xE0)
Формат : MPEG Video
Версия формата : Version 2
Профиль формата : [email protected]
Параметр BVOP формата : Да
Параметр матрицы формата : По умолчанию
Параметр GOP формата : M=3, N=12
Продолжительность : 9 м. 20 с.
Битрейт : 14,6 Мбит/сек
Максимальный битрейт : 7000 Кбит/сек
Ширина : 720 пикселей
Высота : 576 пикселей
Соотношение сторон : 4:3
Частота кадров : 25,000 кадров/сек
Стандарт вещания : PAL
Цветовое пространство : YUV
Субдискретизация насыщенности : 4:2:0
Битовая глубина : 8 бит
Тип развёртки : Чересстрочная
Порядок развёртки : Нижнее поле первое
Метод сжатия : С потерями
Бит/(Пиксели*Кадры) : 1.412
Размер потока : 978 Мбайт (96%)
Основные цвета : BT.470-2 System B, BT.470-2 System G
Характеристики трансфера : BT.470-2 System B, BT.470-2 System G
Коэффициенты матрицы : BT.470-2 System B, BT.470-2 System G
Аудио #1
Идентификатор : 189 (0xBD)-128 (0x80)
Формат : AC-3
Формат/Информация : Audio Coding 3
Расширение режима : CM (complete main)
Режим смешивания : DVD-Video
Продолжительность : 9 м. 20 с.
Вид битрейта : Постоянный
Битрейт : 192 Кбит/сек
Каналы : 2 канала
Расположение каналов : Front: L R
Частота : 48,0 КГц
Битовая глубина : 16 бит
Метод сжатия : С потерями
Размер потока : 12,8 Мбайт (1%)
Аудио #2
Идентификатор : 189 (0xBD)-129 (0x81)
Формат : AC-3
Формат/Информация : Audio Coding 3
Расширение режима : CM (complete main)
Режим смешивания : DVD-Video
Продолжительность : 9 м. 20 с.
Вид битрейта : Постоянный
Битрейт : 192 Кбит/сек
Каналы : 2 канала
Расположение каналов : Front: L R
Частота : 48,0 КГц
Битовая глубина : 16 бит
Метод сжатия : С потерями
Размер потока : 12,8 Мбайт (1%)

DVDInfo

Title: _____
Size: 3.72 Gb ( 3 902 462,00 KBytes ) - DVD-5
Enabled regions: 1, 2, 3, 4, 5, 6, 7, 8
VTS_01 :
Play Length: 01:08:38
Video: PAL 4:3 (720x576) VBR
Audio:
Russian (Dolby AC3, 2 ch)
English (Dolby AC3, 2 ch)
VTS_02 :
Play Length:
* Menus Information *
VIDEO_TS Menu
Video:
NTSC 4:3 (720x480) VBR
Auto Pan&Scan, Auto Letterboxed
Russian Language Unit :
Title Menu
VTS_01 Menu
Video:
PAL 4:3 (720x576) VBR
Audio:
Not specified (Dolby AC3, 2 ch)
Russian Language Unit :
Root Menu
VTS_02 Menu

[Цитировать]



Показать сообщения:    

Текущее время: 06-Дек 19:07

Часовой пояс: UTC + 3


Вы не можете начинать темы
Вы не можете отвечать на сообщения
Вы не можете редактировать свои сообщения
Вы не можете удалять свои сообщения
Вы не можете голосовать в опросах
Вы не можете прикреплять файлы к сообщениям
Вы не можете скачивать файлы

!ВНИМАНИЕ!
Сайт не предоставляет электронные версии произведений, а занимается лишь коллекционированием и каталогизацией ссылок, присылаемых и публикуемых на форуме нашими читателями. Если вы являетесь правообладателем какого-либо представленного материала и не желаете, чтобы ссылка на него находилась в нашем каталоге, свяжитесь с нами, и мы незамедлительно удалим ее. Файлы для обмена на трекере предоставлены пользователями сайта, и администрация не несет ответственности за их содержание. Просьба не заливать файлы, защищенные авторскими правами, а также файлы нелегального содержания!