[ Сегодня идет свободное скачивание без начисления Download ]


Статистика раздачи
Нет
 
   
 
 
 
-Телескоп Хаббл / Hubble (2010) DVD5- Русское название: Телескоп Хаббл
Оригинальное название: Hubble
Год выпуска: 2010
Производство: Канада
Студия: IMAX Space Ltd., Warner Bros. Pictures
Жанр: Документальный, Короткометражка
Перевод: Одноголосый закадровый, профессиональный ( Ю. Сербин )
Вид субтитров: Вшитые отключаемые
Язык субтитров: Русский, Английский
Дата мировой премьеры: 19 марта 2010
Дата российской премьеры: 23 сентября 2010, «IMAX»
Режиссер: Тони Майерс
Продюсер: Тони Майерс, Джуди Кэрролл, Грем Фергюсон
Актеры: Скотт Д. Олтмэн, Леонардо ДиКаприо, Грегори С. Джонсон, Майкл Дж. Массимино, К. Меган МакАртур
Описание фильма:
Используя визуальную мощь кинотеатров IMAX®, Hubble 3D позволит кинозрителям путешествовать через отдаленные галактики, исследовать великолепие и тайны нашей вселенной, и сопровождать работу астронавтов, на плечи которых возложены самые трудные и важные задачи в истории НАСА. Благодаря космическому телескопу Хаббл мы увидим вселенную такой, какой ее только можно увидеть в космосе с помощью самого мощного в мире телескопа.
[imdb]tt1433813[/imdb] [kp]472257[/kp]
Продолжительность: 00:42:12
Качество видео: DVD5
Видеокодек: MPEG-2
Битрейт видео: ~6863 kb/s
Размер кадра: PAL 16:9 (720x576)
Аудиокодек и битрейт аудио:
Аудио #1: Английский ( AC3, 6 ch, 448 kb/s)
Аудио #2: Русский ( AC3, 6 ch, 448 kb/s )
Аудио #3: Английский ( AC3, 2 ch, 256 kb/s)
Аудио #2: Русский ( AC3, 2 ch, 256 kb/s )
Дополнительно: нет

MediaInfo

Общее
Полное имя : D:\Телескоп ХАББЛ\Телескоп ХАББЛ\VIDEO_TS\VTS_02_1.VOB
Формат : MPEG-PS
Размер файла : 1000 Мбайт
Продолжительность : 16 м.
Режим общего битрейта : Переменный
Общий поток : 8439 Кбит/сек
Видео
Идентификатор : 224 (0xE0)
Формат : MPEG Video
Версия формата : Version 2
Профиль формата : Main@Main
Параметр BVOP формата : Да
Параметр матрицы формата : Выборочная
Продолжительность : 16 м.
Вид битрейта : Переменный
Битрейт : 6863 Кбит/сек
Максимальный битрейт : 8400 Кбит/сек
Ширина : 720 пикселей
Высота : 576 пикселей
Соотношение сторон : 16:9
Частота кадров : 25,000 кадров/сек
Стандарт вещания : PAL
Цветовое пространство : YUV
Субдискретизация насыщенности : 4:2:0
Битовая глубина : 8 бит
Тип развёртки : Прогрессивная
Метод сжатия : С потерями
Бит/(Пиксели*Кадры) : 0.662
Размер потока : 813 Мбайт (81%)
Аудио #1
Идентификатор : 189 (0xBD)-128 (0x80)
Формат : AC-3
Формат/Информация : Audio Coding 3
Расширение режима : CM (complete main)
Режим смешивания : DVD-Video
Продолжительность : 16 м.
Вид битрейта : Постоянный
Битрейт : 448 Кбит/сек
Каналы : 6 каналов
Расположение каналов : Front: L C R, Side: L R, LFE
Частота : 48,0 КГц
Битовая глубина : 16 бит
Метод сжатия : С потерями
Размер потока : 53,1 Мбайт (5%)
Аудио #2
Идентификатор : 189 (0xBD)-129 (0x81)
Формат : AC-3
Формат/Информация : Audio Coding 3
Расширение режима : CM (complete main)
Режим смешивания : DVD-Video
Продолжительность : 16 м.
Вид битрейта : Постоянный
Битрейт : 448 Кбит/сек
Каналы : 6 каналов
Расположение каналов : Front: L C R, Side: L R, LFE
Частота : 48,0 КГц
Битовая глубина : 16 бит
Метод сжатия : С потерями
Размер потока : 53,1 Мбайт (5%)
Аудио #3
Идентификатор : 189 (0xBD)-130 (0x82)
Формат : AC-3
Формат/Информация : Audio Coding 3
Расширение режима : CM (complete main)
Режим смешивания : DVD-Video
Продолжительность : 16 м.
Вид битрейта : Постоянный
Битрейт : 256 Кбит/сек
Каналы : 2 канала
Расположение каналов : Front: L R
Частота : 48,0 КГц
Битовая глубина : 16 бит
Метод сжатия : С потерями
Размер потока : 30,3 Мбайт (3%)
Аудио #4
Идентификатор : 189 (0xBD)-131 (0x83)
Формат : AC-3
Формат/Информация : Audio Coding 3
Расширение режима : CM (complete main)
Режим смешивания : DVD-Video
Продолжительность : 16 м.
Вид битрейта : Постоянный
Битрейт : 256 Кбит/сек
Каналы : 2 канала
Расположение каналов : Front: L R
Частота : 48,0 КГц
Битовая глубина : 16 бит
Метод сжатия : С потерями
Размер потока : 30,3 Мбайт (3%)
Текст #1
Идентификатор : 189 (0xBD)-32 (0x20)
Формат : RLE
Формат/Информация : Run-length encoding
Режим смешивания : DVD-Video
Текст #2
Идентификатор : 189 (0xBD)-33 (0x21)
Формат : RLE
Формат/Информация : Run-length encoding
Режим смешивания : DVD-Video
Текст #3
Идентификатор : 189 (0xBD)-34 (0x22)
Формат : RLE
Формат/Информация : Run-length encoding
Режим смешивания : DVD-Video
Текст #4
Идентификатор : 189 (0xBD)-35 (0x23)
Формат : RLE
Формат/Информация : Run-length encoding
Режим смешивания : DVD-Video
Меню

DVDInfo

Title: Телескоп ХАББЛ
Size: 2.94 Gb ( 3 086 654,00 KBytes ) - DVD-5
Enabled regions: 1, 2, 3, 4, 5, 6, 7, 8
VTS_01 :
Play Length: 00:00:10
Video: PAL 16:9 (720x576) VBR, Auto Letterboxed
Audio:
Not specified (Dolby AC3, 6 ch)
VTS_02 :
Play Length: 00:42:12
Video: PAL 16:9 (720x576) VBR, Auto Letterboxed
Audio:
English (Dolby AC3, 6 ch)
Russian (Dolby AC3, 6 ch)
English (Dolby AC3, 2 ch)
Russian (Dolby AC3, 2 ch)
Subtitles:
English
Russian

Скриншоты меню

Скриншоты:

[Цитировать]



Показать сообщения:    

Текущее время: 25-Фев 12:11

Часовой пояс: UTC + 3


Вы не можете начинать темы
Вы не можете отвечать на сообщения
Вы не можете редактировать свои сообщения
Вы не можете удалять свои сообщения
Вы не можете голосовать в опросах
Вы не можете прикреплять файлы к сообщениям
Вы не можете скачивать файлы

!ВНИМАНИЕ!
Сайт не предоставляет электронные версии произведений, а занимается лишь коллекционированием и каталогизацией ссылок, присылаемых и публикуемых на форуме нашими читателями. Если вы являетесь правообладателем какого-либо представленного материала и не желаете, чтобы ссылка на него находилась в нашем каталоге, свяжитесь с нами, и мы незамедлительно удалим ее. Файлы для обмена на трекере предоставлены пользователями сайта, и администрация не несет ответственности за их содержание. Просьба не заливать файлы, защищенные авторскими правами, а также файлы нелегального содержания!