[ Сегодня идет свободное скачивание без начисления Download ]


Статистика раздачи
Нет
 
   
 
Top  
 
 
-13-й район: Дилогия / Banlieue 13: Dilogy (2004-2009) HDRip- -Русское название: 13-й район: Дилогия
Оригинальное название: Banlieue 13: Dilogy
Год выпуска: 2004-2009
Производство: Франция
Жанр: фантастика, боевик, триллер
Режиссер: Пьер Морель, Патрик Алессандрен
Продолжительность: 01:24:34 + 1:40:45-

13-й Район / Banlieue 13

-13-й Район / Banlieue 13- Русское название: 13-й Район
Оригинальное название: Banlieue 13
Год выпуска: 2004
Производство: Франция
Жанр: фантастика, боевик, триллер
Перевод: Дублированный [лицензия]
Субтитры: Отсутствуют-Режиссер: Пьер Морель
В ролях: Кирилл Раффаелли, Дэвид Белль, Тони Д`Амарио, Биби Насери, Дэни Вериссимо, Франсуа Шатто, Николас Войрион, Патрик Оливер, Самир Гесми, Жером Гаднер- -Описание фильма: 2010 год, Париж, из-за разгула преступности некоторые особо опасные районы французской столицы превращены в закрытые зоны и отгорожены от благополучных кварталов бетонной стеной. За ней бурлит совсем другая жизнь: здесь процветает торговля наркотиками и оружием, здесь даже дети не выходят из дома без оружия, здесь давно не работают школы и поликлиники, здесь полиция не стоит на страже закона, а лишь защищает себя или же сама поддерживает беззаконие. Главарю одной из банд удается завладеть нейтронной бомбой. Чтобы обезвредить ее, в 13-й район отправляется офицер спецназ Дамьен. Проникать в опасные зоны — его профессия, однако на этот раз ему все-таки нужен проводник. Союзником Дамьена становится Лейто, отчаянный парень, сестра которого похищена тем же самым главарем…-Исходник: HANSMER / BDRemux / 1080p
Продолжительность: 01:24:34
Качество видео: HDRip
Видеокодек: XviD
Битрейт видео: ~2000 kbps
Размер кадра: 720x304
Аудио: 48 kHz, AC3 Dolby Digital, 3/2 (L,C,R,l,r) + LFE ch, ~448 kbps
-

MediaInfo

Общее
Полное имя                               : C:\Users\iCrab\Documents\HARDWORK\Banlieue.13.Dilogy.-R.G.Shadoof[WYGD]\Banlieue.13.RUS.HDRip.2004.XviD.AC3.-R.G.Shadoof[WYGD].avi
Формат                                   : AVI
Формат/Информация                        : Audio Video Interleave
Размер файла                             : 1,45 Гбайт
Продолжительность                        : 1 ч. 24 м.
Общий поток                              : 2458 Кбит/сек
Название фильма                          : Banlieue.13.RUS.HDRip2004.XviD.AC3.-R.G.Shadoof[WYGD]
Режиссёр                                 : What You Gonna Do?
Программа кодирования                    : VirtualDubMod 1.5.10.2 (build 2540/release)
Правообладатель                          : R.G. Shadoof
Примечание                               : 11.01.2013
Видео
Идентификатор                            : 0
Формат                                   : MPEG-4 Visual
Профиль формата                          : Advanced Simple@L5
Параметр BVOP формата                    : 1
Параметр QPel формата                    : Нет
Параметр GMC формата                     : Без точки перехода
Параметр матрицы формата                 : Выборочная
Идентификатор кодека                     : XVID
Идентификатор кодека/Подсказка           : XviD
Продолжительность                        : 1 ч. 24 м.
Битрейт                                  : 2001 Кбит/сек
Ширина                                   : 720 пикселей
Высота                                   : 304 пикселя
Соотношение сторон                       : 2,35:1
Частота кадров                           : 23,976 кадра/сек
Цветовое пространство                    : YUV
Субдискретизация насыщенности            : 4:2:0
Битовая глубина                          : 8 бит
Тип развёртки                            : Прогрессивная
Метод сжатия                             : С потерями
Бит/(Пиксели*Кадры)                      : 0.381
Размер потока                            : 1,18 Гбайт (81%)
Библиотека кодирования                   : XviD 64
Аудио
Идентификатор                            : 1
Формат                                   : AC-3
Формат/Информация                        : Audio Coding 3
Расширение режима                        : CM (complete main)
Параметр Endianness формата              : Big
Идентификатор кодека                     : 2000
Продолжительность                        : 1 ч. 24 м.
Вид битрейта                             : Постоянный
Битрейт                                  : 448 Кбит/сек
Каналы                                   : 6 каналов
Расположение каналов                     : Front: L C R, Side: L R, LFE
Частота                                  : 48,0 КГц
Битовая глубина                          : 16 бит
Метод сжатия                             : С потерями
Размер потока                            : 271 Мбайт (18%)
Выравнивание                             : Разделение по промежуткам
Продолжительность промежутка             : 42  мс. (1,00 видеокадр)
Время предзагрузки промежутка            : 500  мс.
- -

13-й Район: Ультиматум / Banlieue 13 - Ultimatum

-13-й Район: Ультиматум / Banlieue 13 - Ultimatum- Русское название: 13-й Район: Ультиматум
Оригинальное название: Banlieue 13 - Ultimatum
Год выпуска: 2009
Производство: Франция
Жанр: фантастика, боевик, триллер
Перевод: Дублированный [лицензия]
Субтитры: Отсутствуют-Режиссер: Патрик Алессандрен
В ролях: Сирил Раффаэлли, Дэвид Белль, Филипп Торретон, Даниэль Дюваль, Элоди Юнг, МС Жан Габен, James Deano, Лауни Муид, Фабрис Флетцингер, Пьер-Мари Москони- -Описание фильма: 13-й район, три года спустя. Стена, отделяющая неблагополучный пригород от столицы, стала больше, выше и отгородила от цивилизации еще больше кварталов. По эту сторону стены правят пять банд, контролирующих этнические районы. Правительство как никогда заинтересовано в «урегулировании проблемы», и разведывательные службы охотно инициируют беспорядки. Лейто и Дамьену снова приходится объединить усилия, чтобы спасти Париж от хаоса.-Исходник: crazy-cactus / BDRemux / 1080p
Продолжительность: 01:40:45
Качество видео: HDRip
Видеокодек: XviD
Битрейт видео: ~1604 kbps
Размер кадра: 720x304
Аудио: 48 kHz, AC3 Dolby Digital, 3/2 (L,C,R,l,r) + LFE ch, ~448 kbps
-

MediaInfo

Общее
Полное имя                               : C:\Users\iCrab\Documents\HARDWORK\Banlieue.13.Dilogy.-R.G.Shadoof[WYGD]\Banlieue.13.Ultimatum.RUS.HDRip.2009.XviD.AC3.-R.G.Shadoof[WYGD].avi
Формат                                   : AVI
Формат/Информация                        : Audio Video Interleave
Размер файла                             : 1,45 Гбайт
Продолжительность                        : 1 ч. 40 м.
Общий поток                              : 2061 Кбит/сек
Название фильма                          : Banlieue.13.Ultimatum.RUS.HDRip.2009.XviD.AC3.-R.G.Shadoof[WYGD]
Режиссёр                                 : What You Gonna Do ?
Программа кодирования                    : VirtualDubMod 1.5.10.2 (build 2540/release)
Правообладатель                          : R.G. Shadoof
Примечание                               : 11.01.2013
Видео
Идентификатор                            : 0
Формат                                   : MPEG-4 Visual
Профиль формата                          : Advanced Simple@L5
Параметр BVOP формата                    : 1
Параметр QPel формата                    : Нет
Параметр GMC формата                     : Без точки перехода
Параметр матрицы формата                 : Выборочная
Идентификатор кодека                     : XVID
Идентификатор кодека/Подсказка           : XviD
Продолжительность                        : 1 ч. 40 м.
Битрейт                                  : 1605 Кбит/сек
Ширина                                   : 720 пикселей
Высота                                   : 304 пикселя
Соотношение сторон                       : 2,35:1
Частота кадров                           : 24,000 кадра/сек
Цветовое пространство                    : YUV
Субдискретизация насыщенности            : 4:2:0
Битовая глубина                          : 8 бит
Тип развёртки                            : Прогрессивная
Метод сжатия                             : С потерями
Бит/(Пиксели*Кадры)                      : 0.305
Размер потока                            : 1,13 Гбайт (78%)
Библиотека кодирования                   : XviD 64
Аудио
Идентификатор                            : 1
Формат                                   : AC-3
Формат/Информация                        : Audio Coding 3
Расширение режима                        : CM (complete main)
Параметр Endianness формата              : Big
Идентификатор кодека                     : 2000
Продолжительность                        : 1 ч. 40 м.
Вид битрейта                             : Постоянный
Битрейт                                  : 448 Кбит/сек
Каналы                                   : 6 каналов
Расположение каналов                     : Front: L C R, Side: L R, LFE
Частота                                  : 48,0 КГц
Битовая глубина                          : 16 бит
Метод сжатия                             : С потерями
Размер потока                            : 322 Мбайт (22%)
Выравнивание                             : Разделение по промежуткам
Продолжительность промежутка             : 42  мс. (1,00 видеокадр)
Время предзагрузки промежутка            : 500  мс.
- -

[Цитировать]



Показать сообщения:    

Текущее время: 11-Дек 05:23

Часовой пояс: UTC + 3


Вы не можете начинать темы
Вы не можете отвечать на сообщения
Вы не можете редактировать свои сообщения
Вы не можете удалять свои сообщения
Вы не можете голосовать в опросах
Вы не можете прикреплять файлы к сообщениям
Вы не можете скачивать файлы

!ВНИМАНИЕ!
Сайт не предоставляет электронные версии произведений, а занимается лишь коллекционированием и каталогизацией ссылок, присылаемых и публикуемых на форуме нашими читателями. Если вы являетесь правообладателем какого-либо представленного материала и не желаете, чтобы ссылка на него находилась в нашем каталоге, свяжитесь с нами, и мы незамедлительно удалим ее. Файлы для обмена на трекере предоставлены пользователями сайта, и администрация не несет ответственности за их содержание. Просьба не заливать файлы, защищенные авторскими правами, а также файлы нелегального содержания!