[ Сегодня идет свободное скачивание без начисления Download ]


Статистика раздачи
Нет
 
   
 
Top  
 
 
-Проект «Динозавр» / The Dinosaur Project (2012) HDRip
«Они все-таки выжили...»
- Русское название: Проект «Динозавр»
Оригинальное название: The Dinosaur Project
Год выпуска: 2012
Производство: ЮАР, Великобритания, Moonlighting Films South Africa
Жанр: Фантастика, триллер, приключения
Перевод: Профессиональный (дублированный) [Лицензия]
Субтитры: Отсутствуют
Режиссер: Сид Беннетт
Сценарий: Сид Беннетт, Джей Басу, Том Придхэма
Актеры: Наташа Лоринг, Мэтт Кэйн, Питер Брук, Ричард Диллэйн, Стефен Дженнингс
Описание фильма:
Группа западных исследователей направляется на поиски существа, живущего в воде, о чьем существовании было известно, в основном, по мифам и легендам. Однако поездка изначально пошла не так, как было запланировано. Ряд неприятностей поставил группу на грань выживания в самой гуще тропических джунглей. Помимо многочисленных опасностей, которые здесь обнаружили герои фильма, им также пришлось столкнуться с созданиями, которых цивилизация считала вымершими миллионы лет назад…-[imdb]tt1907779[/imdb] [kp]691622[/kp]
Дата мировой премьеры: 10 августа 2012
Дата российской премьеры: 7 февраля 2013, «Каравелла DDC»
Дата выхода Blu-Ray релиза: 27 февраля 2013, «Кармен Видео»
Дата выхода DVD релиза: 27 февраля 2013, «Кармен Видео», «ВС трейд»-Продолжительность: 01:22:55
Качество видео: HDRip
Видеокодек: XviD
Битрейт видео: 1965 Кбит/сек
Размер кадра: 720x304
Аудио : Русский, AC3, 6 ch, 384 Кбит/с

MediaInfo

Общее
Полное имя                               : E:\Раздачи\Видео\Проект Динозавр (2012) HDRip Dub.avi
Формат                                   : AVI
Формат/Информация                        : Audio Video Interleave
Размер файла                             : 1,37 Гбайт
Продолжительность                        : 1 ч. 22 м.
Общий поток                              : 2359 Кбит/сек
Программа кодирования                    : VirtualDubMod 1.5.10.2 (build 2540/release)
Видео
Идентификатор                            : 0
Формат                                   : MPEG-4 Visual
Профиль формата                          : Advanced Simple@L5
Параметр BVOP формата                    : 2
Параметр QPel формата                    : Нет
Параметр GMC формата                     : Без точки перехода
Параметр матрицы формата                 : Выборочная
Идентификатор кодека                     : XVID
Идентификатор кодека/Подсказка           : XviD
Продолжительность                        : 1 ч. 22 м.
Битрейт                                  : 1965 Кбит/сек
Ширина                                   : 720 пикселей
Высота                                   : 304 пикселя
Соотношение сторон                       : 2,35:1
Частота кадров                           : 23,976 кадра/сек
Цветовое пространство                    : YUV
Субдискретизация насыщенности            : 4:2:0
Битовая глубина                          : 8 бит
Тип развёртки                            : Прогрессивная
Метод сжатия                             : С потерями
Бит/(Пиксели*Кадры)                      : 0.374
Размер потока                            : 1,14 Гбайт (83%)
Библиотека кодирования                   : XviD 64
Аудио
Идентификатор                            : 1
Формат                                   : AC-3
Формат/Информация                        : Audio Coding 3
Расширение режима                        : CM (complete main)
Параметр Endianness формата              : Big
Идентификатор кодека                     : 2000
Продолжительность                        : 1 ч. 22 м.
Вид битрейта                             : Постоянный
Битрейт                                  : 384 Кбит/сек
Каналы                                   : 6 каналов
Расположение каналов                     : Front: L C R, Side: L R, LFE
Частота                                  : 48,0 КГц
Битовая глубина                          : 16 бит
Метод сжатия                             : С потерями
Размер потока                            : 228 Мбайт (16%)
Выравнивание                             : Разделение по промежуткам
Продолжительность промежутка             : 42  мс. (1,00 видеокадр)
Время предзагрузки промежутка            : 500  мс.
Скриншоты:

[Цитировать]



Показать сообщения:    

Текущее время: 10-Дек 17:40

Часовой пояс: UTC + 3


Вы не можете начинать темы
Вы не можете отвечать на сообщения
Вы не можете редактировать свои сообщения
Вы не можете удалять свои сообщения
Вы не можете голосовать в опросах
Вы не можете прикреплять файлы к сообщениям
Вы не можете скачивать файлы

!ВНИМАНИЕ!
Сайт не предоставляет электронные версии произведений, а занимается лишь коллекционированием и каталогизацией ссылок, присылаемых и публикуемых на форуме нашими читателями. Если вы являетесь правообладателем какого-либо представленного материала и не желаете, чтобы ссылка на него находилась в нашем каталоге, свяжитесь с нами, и мы незамедлительно удалим ее. Файлы для обмена на трекере предоставлены пользователями сайта, и администрация не несет ответственности за их содержание. Просьба не заливать файлы, защищенные авторскими правами, а также файлы нелегального содержания!