[ Сегодня идет свободное скачивание без начисления Download ]


Статистика раздачи
Нет
 
   
 
Top  
 
 
-Плетеный человек / The Wicker Man (2006) HDRip
«Кто-то должен стать жертвой»
- Русское название: Плетеный человек
Оригинальное название: The Wicker Man
Год выпуска: 2006
Производство: США, Германия, Канада
Жанр: Ужасы, триллер, детектив
Перевод: Профессиональный (полное дублирование)
Субтитры: Отсутствуют
Режиссер: Нил ЛаБут
Сценарий: Нил ЛаБут, Энтони Шэффер
Актеры: Николас Кейдж, Эллен Берстин, Кейт Бихан, Аарон Экхарт, Фрэнсис Конрой, Молли Паркер, Лили Собески, Дайан Делано, Майкл Вайсман, Криста Кэмпбелл, Джеймс Франко, Таня Солнье, Джейсон Риттер
Описание фильма:
Бывший полицейский Эдвард Маюлис получает письмо от своей давней подруги, в котором она просит найти ее пропавшую дочь. Расследуя исчезновение маленькой девочки, Эдвард попадает на странный остров с очень странными людьми и обнаруживает, что пропажа девочки связана с существующим на острове тайным обществом. Непонятные символы, пугающие обряды — во всем этом придется разобраться полицейскому, чтобы узнать страшную тайну…-
Дата мировой премьеры: 31 августа 2006
Дата российской премьеры: 14 сентября 2006, «Централ Партнершип»
Дата выхода DVD релиза: 5 октября 2006, «Союз-Видео»
Рейтинг MPAA: детям до 13 лет просмотр не желателен-Продолжительность: 01:41:42
Качество видео: HDRip
Видеокодек: XviD
Битрейт видео: 893 Кбит/сек
Размер кадра: 688x288
Аудио : Русский, MP3, 2 ch, 128 Кбит/сек

Знаете ли вы, что...

  • В фильме «Правила секса» (2002) во время вечеринки сжигают фигуру плетёного человека.
  • Одну из ролей предлагали сыграть Эдварду Вудварду, главной звезде оригинальной ленте. Вудвард отказался, но заявил, что был удивлен качеством нового сценария.
  • Фильм посвящен Джонни Рамону (гитарист «Ramones»).

MediaInfo

Общее
Полное имя                               : E:\Раздачи\Видео\Плетеный человек (2006) HDRip.avi
Формат                                   : AVI
Формат/Информация                        : Audio Video Interleave
Размер файла                             : 749 Мбайт
Продолжительность                        : 1 ч. 41 м.
Общий поток                              : 1030 Кбит/сек
Программа кодирования                    : VirtualDubMod 1.5.10.2 (build 2540/release)
Библиотека кодирования                   : VirtualDubMod build 2540/release
Видео
Идентификатор                            : 0
Формат                                   : MPEG-4 Visual
Профиль формата                          : Advanced Simple@L5
Параметр BVOP формата                    : 1
Параметр QPel формата                    : Нет
Параметр GMC формата                     : Без точки перехода
Параметр матрицы формата                 : Выборочная
Режим смешивания                         : Сжатый битовый поток
Идентификатор кодека                     : XVID
Идентификатор кодека/Подсказка           : XviD
Продолжительность                        : 1 ч. 41 м.
Битрейт                                  : 893 Кбит/сек
Ширина                                   : 688 пикселей
Высота                                   : 288 пикселей
Соотношение сторон                       : 2,40:1
Частота кадров                           : 23,976 кадра/сек
Цветовое пространство                    : YUV
Субдискретизация насыщенности            : 4:2:0
Битовая глубина                          : 8 бит
Тип развёртки                            : Прогрессивная
Метод сжатия                             : С потерями
Бит/(Пиксели*Кадры)                      : 0.188
Размер потока                            : 649 Мбайт (87%)
Библиотека кодирования                   : XviD 1.2.1 (UTC 2008-12-04)
Аудио
Идентификатор                            : 1
Формат                                   : MPEG Audio
Версия формата                           : Version 1
Профиль формата                          : Layer 3
Идентификатор кодека                     : 55
Идентификатор кодека/Подсказка           : MP3
Продолжительность                        : 1 ч. 41 м.
Вид битрейта                             : Постоянный
Битрейт                                  : 128 Кбит/сек
Каналы                                   : 2 канала
Частота                                  : 48,0 КГц
Метод сжатия                             : С потерями
Размер потока                            : 93,1 Мбайт (12%)
Выравнивание                             : Соединение по промежуткам
Продолжительность промежутка             : 42  мс. (1,00 видеокадр)
Время предзагрузки промежутка            : 504  мс.
Библиотека кодирования                   : LAME3.98r
Настройки программы                      : -m s -V 4 -q 2 -lowpass 17 -b 128
Скриншоты:

[Цитировать]



Показать сообщения:    

Текущее время: 03-Дек 01:20

Часовой пояс: UTC + 3


Вы не можете начинать темы
Вы не можете отвечать на сообщения
Вы не можете редактировать свои сообщения
Вы не можете удалять свои сообщения
Вы не можете голосовать в опросах
Вы не можете прикреплять файлы к сообщениям
Вы не можете скачивать файлы

!ВНИМАНИЕ!
Сайт не предоставляет электронные версии произведений, а занимается лишь коллекционированием и каталогизацией ссылок, присылаемых и публикуемых на форуме нашими читателями. Если вы являетесь правообладателем какого-либо представленного материала и не желаете, чтобы ссылка на него находилась в нашем каталоге, свяжитесь с нами, и мы незамедлительно удалим ее. Файлы для обмена на трекере предоставлены пользователями сайта, и администрация не несет ответственности за их содержание. Просьба не заливать файлы, защищенные авторскими правами, а также файлы нелегального содержания!