[ Сегодня идет свободное скачивание без начисления Download ]


Статистика раздачи
Нет
 
   
 
Top  
 
 
-Нянь / The Sitter (2011) [H264] BDRip-«Worst. Babysitter. Ever.»- Русское название: Нянь
Оригинальное название: The Sitter
Год выпуска: 2011
Жанр: Комедия
Перевод: Профессиональный (Многоголосый закадровый)
Продолжительность: 01:21:14
Субтитры: Нет.-Дата мировой премьеры: 9 декабря 2011-Режиссер: Дэвид Гордон Грин-Продюсеры: Майкл Де Лука, Джош Братман, Джона Хилл-Актеры: Джона Хилл, Макс Рекордс, Эри Грейнор, Дж.Б. Смув, Сэм Рокуэлл, Ландри Бендер, Кевин Эрнандез, Кайли Банбери, Эрин Дэниелс, Д.В. Моффетт-Описание фильма:
Речь в картине пойдет об исключенном из колледжа юноше, которому приходится стать нянькой необычайно шаловливых детей, двух мальчиков и 8-летней неуправляемой девочки, живущих по соседству с его одинокой мамой, и провести с ними одну безумную ночь.- -Качество видео: BDRip
Видеокодек: MPEG-4 AVC/H.264
Формат: MKV
Видео: 1056x568 (1,85:1), 23,976 fps, 2126 Кbps, 0.148 bit/pixel
Аудио#1: 48 kHz, AC3 Dolby Digital, 2/0 (L,R) ch, ~192 kbps | Русский
Аудио#2: 48 kHz, AC3 Dolby Digital, 2/0 (L,R) ch, ~256kbps | Английский-

MediaInfo:

General
Unique ID : 177866300132578416840584357955869970163 (0x85CFCDA87E8EE1E3B0007DD2236D8EF3)
Complete name : C:\Нянь The Sitter (2011) [H264].mkv
Format : Matroska
Format version : Version 2
File size : 1.46 GiB
Duration : 1h 21mn
Overall bit rate : 2 573 Kbps
Movie name : -=POTROKS=-
Encoded date : UTC 2013-02-21 06:03:36
Writing application : mkvmerge v5.7.0 ('The Whirlwind') built on Jul 8 2012 20:08:51
Writing library : libebml v1.2.3 + libmatroska v1.3.0
Video
ID : 1
Format : AVC
Format/Info : Advanced Video Codec
Format profile : High@L4.1
Format settings, CABAC : No
Format settings, ReFrames : 9 frames
Codec ID : V_MPEG4/ISO/AVC
Duration : 1h 21mn
Bit rate : 2 126 Kbps
Width : 1 056 pixels
Height : 568 pixels
Display aspect ratio : 1.85:1
Frame rate mode : Constant
Frame rate : 23.976 fps
Color space : YUV
Chroma subsampling : 4:2:0
Bit depth : 8 bits
Scan type : Progressive
Bits/(Pixel*Frame) : 0.148
Stream size : 1.18 GiB (81%)
Title : The Sitter
Writing library : x264 core 116 r2019M 9cc407d
Encoding settings : cabac=0 / ref=10 / deblock=1:-2:-1 / analyse=0x3:0x133 / me=umh / subme=9 / psy=1 / psy_rd=1.00:0.00 / mixed_ref=1 / me_range=48 / chroma_me=1 / trellis=1 / 8x8dct=1 / cqm=0 / deadzone=21,13 / fast_pskip=0 / chroma_qp_offset=-2 / threads=8 / sliced_threads=0 / nr=0 / decimate=1 / interlaced=0 / bluray_compat=0 / constrained_intra=0 / bframes=8 / b_pyramid=1 / b_adapt=2 / b_bias=0 / direct=3 / weightb=1 / open_gop=0 / weightp=2 / keyint=230 / keyint_min=23 / scenecut=40 / intra_refresh=0 / rc_lookahead=100 / rc=2pass / mbtree=1 / bitrate=2126 / ratetol=1.0 / qcomp=0.60 / qpmin=10 / qpmax=51 / qpstep=4 / cplxblur=20.0 / qblur=0.5 / ip_ratio=1.37 / aq=1:1.20
Language : English
Default : Yes
Forced : No
Audio #1
ID : 2
Format : AC-3
Format/Info : Audio Coding 3
Mode extension : CM (complete main)
Format settings, Endianness : Big
Codec ID : A_AC3
Duration : 1h 21mn
Bit rate mode : Constant
Bit rate : 192 Kbps
Channel(s) : 2 channels
Channel positions : Front: L R
Sampling rate : 48.0 KHz
Bit depth : 16 bits
Compression mode : Lossy
Delay relative to video : 700ms
Stream size : 112 MiB (7%)
Language : Russian
Default : Yes
Forced : Yes
Audio #2
ID : 3
Format : AC-3
Format/Info : Audio Coding 3
Mode extension : CM (complete main)
Format settings, Endianness : Big
Codec ID : A_AC3
Duration : 1h 21mn
Bit rate mode : Constant
Bit rate : 256 Kbps
Channel(s) : 2 channels
Channel positions : Front: L R
Sampling rate : 48.0 KHz
Bit depth : 16 bits
Compression mode : Lossy
Stream size : 149 MiB (10%)
Language : English
Default : No
Forced : No
Скриншоты:

[Цитировать]



Показать сообщения:    

Текущее время: 08-Дек 05:10

Часовой пояс: UTC + 3


Вы не можете начинать темы
Вы не можете отвечать на сообщения
Вы не можете редактировать свои сообщения
Вы не можете удалять свои сообщения
Вы не можете голосовать в опросах
Вы не можете прикреплять файлы к сообщениям
Вы не можете скачивать файлы

!ВНИМАНИЕ!
Сайт не предоставляет электронные версии произведений, а занимается лишь коллекционированием и каталогизацией ссылок, присылаемых и публикуемых на форуме нашими читателями. Если вы являетесь правообладателем какого-либо представленного материала и не желаете, чтобы ссылка на него находилась в нашем каталоге, свяжитесь с нами, и мы незамедлительно удалим ее. Файлы для обмена на трекере предоставлены пользователями сайта, и администрация не несет ответственности за их содержание. Просьба не заливать файлы, защищенные авторскими правами, а также файлы нелегального содержания!