[ Сегодня идет свободное скачивание без начисления Download ]


Статистика раздачи
Нет
 
   
 
Top  
 
 
-Проклятый путь / Road to Perdition (2002) BDRip
«Pray for Michael Sullivan»
-- Русское название: Проклятый путь
Оригинальное название: Road to Perdition
Год выпуска: 2002
Страна: США | 20th Century Fox Film Corporation, DreamWorks SKG, The Zanuck Company
Жанр: триллер, драма, криминал
--Описание фильма:
Внешне вполне среднестатистический американец Майкл Салливан живёт жизнью нормального гражданина 30-х годов XX века. Он хороший отец, крепкий семьянин, ответственный работник; но одно не дает покоя его старшему сыну Майклу — куда именно отец уезжает на своей машине каждое утро и что за люди окружают его — в костюмах идеального покроя, но со странной хитрецой в глазах? Однажды Майкл забирается на заднее сиденье машины отца и становится свидетелем его работы. Проблема в том, что Майкл Салливан — самый настоящий гангстер, выполняющий деликатные поручения, где нет места лишним свидетелям. Из-за этого жизнь Майкла оказывается под угрозой. Чтобы спасти его, Майк вынужден пойти против боссов мафии.--Режиссер: Сэм Мендес
Актеры: Том Хэнкс, Пол Ньюман, Джуд Лоу, Дженнифер Джейсон Ли, Дэниэл Крэйг, Тайлер Хёхлин, Лиам Эйкен, Киаран Хиндс, Дилан Бейкер, Стэнли Туччи ...
Продолжительность: 01:56:58
Перевод: Дублированный

Дата мировой премьеры: 12 июля 2002
Дата российской премьеры: 23 октября 2002, «Гемини Киномир»
Дата выхода Blu-Ray релиза: 27 мая 2010, «Двадцатый Век Фокс СНГ»-Видеокодек: Xvid
Битрейт видео: ~2051 Кбит/сек
Размер кадра: 720*304
Качество видео: BDRip
Аудиокодек: AC3 5.1
Битрейт аудио: 448 Кбит/сек

Релиз группа: ironclub

Награды:

MediaInfo:

Общее
Полное имя                               : :\\Proklyatyi.Put.2002.D.XviD.BDRip.avi
Формат                                   : AVI
Формат/Информация                        : Audio Video Interleave
Профиль формата                          : OpenDML
Размер файла                             : 2,05 Гбайт
Продолжительность                        : 1 ч. 56 м.
Общий поток                              : 2511 Кбит/сек
Название фильма                          : Proklyatyi.Put.2002.D.XviD.BDRip
Режиссёр                                 : IronClub
Жанр                                     : Action/Crime/Drama
Программа кодирования                    : VirtualDubMod 1.5.10.3 | [url=http://www.virtualdub-fr.org]www.virtualdub-fr.org[/url] || (build 2550/release)
Видео
Идентификатор                            : 0
Формат                                   : MPEG-4 Visual
Профиль формата                          : Advanced [email protected]
Параметр BVOP формата                    : Нет
Параметр QPel формата                    : Нет
Параметр GMC формата                     : Без точки перехода
Параметр матрицы формата                 : Выборочная
Идентификатор кодека                     : XVID
Идентификатор кодека/Подсказка           : XviD
Продолжительность                        : 1 ч. 56 м.
Битрейт                                  : 2051 Кбит/сек
Ширина                                   : 720 пикселей
Высота                                   : 304 пикселя
Соотношение сторон                       : 2,35:1
Частота кадров                           : 23,976 кадра/сек
Цветовое пространство                    : YUV
Субдискретизация насыщенности            : 4:2:0
Битовая глубина                          : 8 бит
Тип развёртки                            : Прогрессивная
Метод сжатия                             : С потерями
Бит/(Пиксели*Кадры)                      : 0.391
Размер потока                            : 1,68 Гбайт (82%)
Библиотека кодирования                   : XviD 1.2.1 (UTC 2008-12-04)
Аудио
Идентификатор                            : 1
Формат                                   : AC-3
Формат/Информация                        : Audio Coding 3
Расширение режима                        : CM (complete main)
Параметр Endianness формата              : Big
Идентификатор кодека                     : 2000
Продолжительность                        : 1 ч. 56 м.
Вид битрейта                             : Постоянный
Битрейт                                  : 448 Кбит/сек
Каналы                                   : 6 каналов
Расположение каналов                     : Front: L C R, Side: L R, LFE
Частота                                  : 48,0 КГц
Битовая глубина                          : 16 бит
Метод сжатия                             : С потерями
Размер потока                            : 375 Мбайт (18%)
Выравнивание                             : Разделение по промежуткам
Продолжительность промежутка             : 42  мс. (1,00 видеокадр)
Время предзагрузки промежутка            : 500  мс.
Скриншоты:

[Цитировать]



Показать сообщения:    

Текущее время: 06-Дек 13:17

Часовой пояс: UTC + 3


Вы не можете начинать темы
Вы не можете отвечать на сообщения
Вы не можете редактировать свои сообщения
Вы не можете удалять свои сообщения
Вы не можете голосовать в опросах
Вы не можете прикреплять файлы к сообщениям
Вы не можете скачивать файлы

!ВНИМАНИЕ!
Сайт не предоставляет электронные версии произведений, а занимается лишь коллекционированием и каталогизацией ссылок, присылаемых и публикуемых на форуме нашими читателями. Если вы являетесь правообладателем какого-либо представленного материала и не желаете, чтобы ссылка на него находилась в нашем каталоге, свяжитесь с нами, и мы незамедлительно удалим ее. Файлы для обмена на трекере предоставлены пользователями сайта, и администрация не несет ответственности за их содержание. Просьба не заливать файлы, защищенные авторскими правами, а также файлы нелегального содержания!