[ Сегодня идет свободное скачивание без начисления Download ]


Статистика раздачи
Нет
 
   
 
Top  
 
 
-Большой Стэн / Big Stan (2007) BDRemux--«Размер имеет значение»- Русское название: Большой Стэн
Оригинальное название: Big Stan
Год выпуска: 2007
Страна: США
Жанр: Комедия-Описание фильма:
Преуспевающему риэлтеру по имени Стэн грозит тюремный срок за мошенничество. А в тюрьмах Америки сидит много злобных негров и латинос, которые обожают насиловать белых гламурных мальчиков. У Стэна только два пути: отдать себя на поругание зэкам или стать круче их...
Очень забавная комедия, поставленная голливудским актером-комиком Робом Шнайдером, им же блестяще исполнена главная роль (Стэн).
-Режиссер: Роб Шнайдер
Актеры: Роб Шнайдер, Дэвид Кэррадайн, Дженнифер Моррисон, Скотт Уилсон, Ричард Кайнд, Сэлли Кёркленд, М. Эммет Уолш, Генри Гибсон, Джексон Рэтбоун, Кевин Гейдж
Продолжительность: 01:49:06
Перевод: Профессиональный (полное дублирование)
Язык субтитров: Русский, английский
Вид субтитров: Вшитые отключаемые-[imdb]tt0490086[/imdb] [kp]231150[/kp]-Дата мировой премьеры: 5 ноября 2007
Дата российской премьеры: 12 июня 2008, «Централ Партнершип»
Дата выхода DVD релиза: 10 июля 2008, «CP-Digital»-Видеокодек: MPEG-4 AVC/H.264
Битрейт видео: ~32,6 Мбит/сек
Размер кадра: 1920x1080
Качество видео: BDRemux 1080p
Контейнер: MKV
Аудиокодек: DTS , DTS-HD MA
Аудио 1: Русский ( DTS / 5.1 / 48 kHz / 755 kbps ) - Дубляж
Аудио 2: Английский ( DTS-HD MA / 5.1 / 48 kHz / 1561 kbps )-

Знаете ли вы, что...

• «Большой Стэн» — первая режиссёрская работа Роба Шнайдера. Также, он исполнил в фильме главную роль.
• Мелани Лински изначально получила роль жены Стэна, но позже была заменена на Дженнифер Моррисон.
• Фильм снимался в настоящей женской тюрьме. Роб Шнайдер во время съемок несколько раз падал в обморок от пищевого отравления и теплового удара, но продолжал качать железо и сниматься вместе с несколькими настоящими мастерами восточных единоборств.
-

MediaInfo:

Общее
Уникальный идентификатор : 180536068879075575873903093608199574293 (0x87D1FB6B892D54CCAF64CA16B40D5315)
Полное имя : Большой Стэн.(2007) [1080p] BDRemux.mkv
Формат : Matroska
Версия формата : Version 4 / Version 2
Размер файла : 27,1 Гбайт
Продолжительность : 1 ч. 49 м.
Режим общего битрейта : Переменный
Общий поток : 35,6 Мбит/сек
Дата кодирования : UTC 2013-01-26 13:09:57
Программа кодирования : mkvmerge v6.0.0 ('Coming Up For Air') built on Jan 20 2013 09:52:00
Библиотека кодирования : libebml v1.3.0 + libmatroska v1.4.0
Видео
Идентификатор : 1
Формат : AVC
Формат/Информация : Advanced Video Codec
Профиль формата : [email protected]
Параметр CABAC формата : Да
Параметр ReFrames формата : 4 кадра
Идентификатор кодека : V_MPEG4/ISO/AVC
Продолжительность : 1 ч. 49 м.
Вид битрейта : Переменный
Битрейт : 32,6 Мбит/сек
Максимальный битрейт : 38,0 Мбит/сек
Ширина : 1920 пикселей
Высота : 1080 пикселей
Соотношение сторон : 16:9
Режим частоты кадров : Постоянный
Частота кадров : 23,976 кадра/сек
Стандарт вещания : NTSC
Цветовое пространство : YUV
Субдискретизация насыщенности : 4:2:0
Битовая глубина : 8 бит
Тип развёртки : Прогрессивная
Бит/(Пиксели*Кадры) : 0.655
Размер потока : 24,8 Гбайт (92%)
Default : Да
Forced : Нет
Основные цвета : BT.709
Характеристики трансфера : BT.709
Коэффициенты матрицы : BT.709
Аудио #1
Идентификатор : 2
Формат : DTS
Формат/Информация : Digital Theater Systems
Идентификатор кодека : A_DTS
Продолжительность : 1 ч. 49 м.
Вид битрейта : Постоянный
Битрейт : 755 Кбит/сек
Каналы : 6 каналов
Расположение каналов : Front: L C R, Side: L R, LFE
Частота : 48,0 КГц
Битовая глубина : 24 бит
Метод сжатия : С потерями
Размер потока : 589 Мбайт (2%)
Язык : Russian
Default : Да
Forced : Нет
Аудио #2
Идентификатор : 3
Формат : DTS
Формат/Информация : Digital Theater Systems
Профиль формата : MA / Core
Идентификатор кодека : A_DTS
Продолжительность : 1 ч. 49 м.
Вид битрейта : Переменный
Битрейт : 1561 Кбит/сек / 1510 Кбит/сек
Каналы : 6 каналов
Расположение каналов : Front: L C R, Side: L R, LFE
Частота : 48,0 КГц
Битовая глубина : 16 бит
Метод сжатия : Без потерь / Lossy
Язык : English
Default : Нет
Forced : Нет
Текст #1
Идентификатор : 4
Формат : VobSub
Режим смешивания : zlib
Идентификатор кодека : S_VOBSUB
Идентификатор кодека/Информация : The same subtitle format used on DVDs
Язык : Russian
Default : Да
Forced : Нет
Текст #2
Идентификатор : 5
Формат : VobSub
Режим смешивания : zlib
Идентификатор кодека : S_VOBSUB
Идентификатор кодека/Информация : The same subtitle format used on DVDs
Язык : English
Default : Нет
Forced : Нет
Текст #3
Идентификатор : 6
Формат : VobSub
Режим смешивания : zlib
Идентификатор кодека : S_VOBSUB
Идентификатор кодека/Информация : The same subtitle format used on DVDs
Язык : English
Default : Нет
Forced : Нет
Меню
00:00:00.000 : en:(01)00:00:00:000
00:09:03.125 : en:(02)00:09:03:125
00:20:04.536 : en:(03)00:20:04:536
00:29:06.161 : en:(04)00:29:06:161
00:39:57.853 : en:(05)00:39:57:853
00:51:45.936 : en:(06)00:51:45:936
00:59:55.133 : en:(07)00:59:55:133
01:07:13.070 : en:(08)01:07:13:070
01:19:55.916 : en:(09)01:19:55:916
01:31:19.932 : en:(10)01:31:19:932
01:43:07.681 : en:(11)01:43:07:681
01:49:06.748 : en:(12)01:49:06:748
-Скриншоты:



[Цитировать]



Показать сообщения:    

Текущее время: 04-Дек 04:57

Часовой пояс: UTC + 3


Вы не можете начинать темы
Вы не можете отвечать на сообщения
Вы не можете редактировать свои сообщения
Вы не можете удалять свои сообщения
Вы не можете голосовать в опросах
Вы не можете прикреплять файлы к сообщениям
Вы не можете скачивать файлы

!ВНИМАНИЕ!
Сайт не предоставляет электронные версии произведений, а занимается лишь коллекционированием и каталогизацией ссылок, присылаемых и публикуемых на форуме нашими читателями. Если вы являетесь правообладателем какого-либо представленного материала и не желаете, чтобы ссылка на него находилась в нашем каталоге, свяжитесь с нами, и мы незамедлительно удалим ее. Файлы для обмена на трекере предоставлены пользователями сайта, и администрация не несет ответственности за их содержание. Просьба не заливать файлы, защищенные авторскими правами, а также файлы нелегального содержания!