[ Сегодня идет свободное скачивание без начисления Download ]


Статистика раздачи
Нет
 
   
 
Top  
 
 
-Ангел зла / Evil Angel (2009) BDRemux- -Русское название: Ангел зла
Оригинальное название: Evil Angel
Студия: Main Street Movie Company, Zion Films
Страна: США
Год выпуска: 2009
Жанр: Ужасы, Триллер-Описание фильма:
Когда Лилит, первая жена Адама, ослушалась его, она была изгнана из Эдемского Сада и Адам взял себе в жены другую женщину - Еву. Возмущенная этим Лилит решает мстить детям Адама и Евы до наших дней. Перерождаясь в телах умерших женщин с убийственно сексуальной и соблазнительной внешностью, Лилит, как первая женщина Земли, с гордостью претендует быть первым серийным убийцей в мире.-Режиссер: Ричард Дачер / Richard Dutcher
Актеры: Винг Рэймс, Ава Годет, Кристофер Шепард, Ричард Дачер, Барт Джонсон, Мари Уэстбрук-Продолжительность: 02:04:02
Перевод: Профессиональный |двухголосый закадровый| НТВ+, Одноголосый закадровый |R1shpil|
Оригинальная аудиодорожка: английский
Cубтитры: русские
Формат субтитров: softsub [SRT]- -Видеокодек: MPEG-2
Битрейт видео: ~18384 kbps
Размер кадра: 1920x1080p
Качество видео: BDRemux-Аудио 1: Русский AC3 / 2.0 / 48 kHz / 192 kbps / 16 bits | DVO
Аудио 2: Русский AC3 / 2.0 / 48 kHz / 192 kbps / 16 bits | VO
Аудио 3: Английский DTS-HD Master Audio / 5.1 / 48 kHz / 1985 kbps / 16 bits (DTS Core: 5.1 / 48 kHz / 1152 kbps / 16 bits)-Скриншоты:
- -

MediaInfo:

General
Complete name : O:\Ангел зла.2009.Blu-Ray.Remux.(1080p).mkv
Format : Matroska
File size : 18.0 GiB
Duration : 2h 4mn
Overall bit rate : 20.8 Mbps
Encoded date : UTC 2012-09-24 17:49:39
Writing application : mkvmerge v5.8.0 ('No Sleep / Pillow') built on Sep 2 2012 15:37:04
Writing library : libebml v1.2.3 + libmatroska v1.3.0
Video
ID : 1
Format : MPEG Video
Format version : Version 2
Format profile : [email protected]
Format settings, BVOP : No
Format settings, Matrix : Default
Codec ID : V_MPEG2
Codec ID/Info : MPEG 1 or 2 Video
Duration : 2h 3mn
Bit rate mode : Variable
Nominal bit rate : 25.0 Mbps
Width : 1 920 pixels
Height : 1 080 pixels
Display aspect ratio : 16:9
Frame rate : 23.976 fps
Standard : Component
Resolution : 8 bits
Colorimetry : 4:2:0
Scan type : Progressive
Bits/(Pixel*Frame) : 0.503
Writing library : TMPGEnc XPress 4.7.4.299
Audio #1
ID : 2
Format : AC-3
Format/Info : Audio Coding 3
Codec ID : A_AC3
Duration : 2h 4mn
Bit rate mode : Constant
Bit rate : 192 Kbps
Channel(s) : 2 channels
Channel positions : L R
Sampling rate : 48.0 KHz
Stream size : 170 MiB (1%)
Title : НТВ+
Language : Russian
Audio #2
ID : 3
Format : AC-3
Format/Info : Audio Coding 3
Codec ID : A_AC3
Duration : 2h 4mn
Bit rate mode : Constant
Bit rate : 192 Kbps
Channel(s) : 2 channels
Channel positions : L R
Sampling rate : 48.0 KHz
Stream size : 170 MiB (1%)
Title : R1shpil
Language : Russian
Audio #3
ID : 4
Format : DTS
Format/Info : Digital Theater Systems
Format profile : MA
Codec ID : A_DTS
Duration : 2h 4mn
Bit rate mode : Variable
Channel(s) : 6 channels
Channel positions : Front: L C R, Surround: L R, LFE
Sampling rate : 48.0 KHz
Resolution : 16 bits
Text
ID : 5
Format : UTF-8
Codec ID : S_TEXT/UTF8
Codec ID/Info : UTF-8 Plain Text
Title : MMManja
Language : Russian
Menu
00:00:00.000 : :Chapter 01
00:10:46.020 : :Chapter 02
00:21:27.995 : :Chapter 03
00:30:41.005 : :Chapter 04
00:40:09.990 : :Chapter 05
00:51:30.962 : :Chapter 06
01:04:58.978 : :Chapter 07
01:16:25.914 : :Chapter 08
01:27:02.884 : :Chapter 09
01:38:15.889 : :Chapter 10
01:46:24.878 : :Chapter 11
01:56:08.878 : :Chapter 12

[Цитировать]



Показать сообщения:    

Текущее время: 05-Дек 11:32

Часовой пояс: UTC + 3


Вы не можете начинать темы
Вы не можете отвечать на сообщения
Вы не можете редактировать свои сообщения
Вы не можете удалять свои сообщения
Вы не можете голосовать в опросах
Вы не можете прикреплять файлы к сообщениям
Вы не можете скачивать файлы

!ВНИМАНИЕ!
Сайт не предоставляет электронные версии произведений, а занимается лишь коллекционированием и каталогизацией ссылок, присылаемых и публикуемых на форуме нашими читателями. Если вы являетесь правообладателем какого-либо представленного материала и не желаете, чтобы ссылка на него находилась в нашем каталоге, свяжитесь с нами, и мы незамедлительно удалим ее. Файлы для обмена на трекере предоставлены пользователями сайта, и администрация не несет ответственности за их содержание. Просьба не заливать файлы, защищенные авторскими правами, а также файлы нелегального содержания!