[ Сегодня идет свободное скачивание без начисления Download ]


Статистика раздачи
Нет
 
   
 
Top  
 
 
Параллельные миры / Upside Down
Страна: Канада, Франция
Студия: Jouror Productions, Onyx Films, Studio 37, Transfilm
Жанр: драма, мелодрама, фэнтези
Год выпуска: 2012
Продолжительность: 01:47:50
Перевод: Профессиональный (дублированный)
Cубтитры: нет
Оригинальная аудиодорожка: нет
Режиссер: Хуан Диего Соланас / Juan Diego Solanas
В ролях: Кирстен Данст, Джим Стёрджесс, Тимоти Сполл, Стелла Маив, Нил Напье, Джэйн Хейтмейер, Холли О’Брайэн, Ларри Дэй, Агнешка Вроновска, Джон МакЛарен, Дон Джордан, Джеймс Кидни, Фрэнк М. Эхерн, Хайди Хоукинс, Винсент Мессина, Николас Роуз, Эллиотт Ларсон-Гилмор, Холден Вонг, Джесси Шерман, Пол Бурк, Пол Дон, Захари Амзаллак
Описание: Однажды, несколько тысяч лет тому назад, две планеты притянулись друг к другу. Там правили мир и гармония. Но стоило верхнему миру обрести уверенность и власть, как между планетами началось противостояние. Казалось, ничто не может примирить параллельные миры. Она — дочь президента верхнего мира. Эта хрупкая девушка с сильным характером и не подозревала, что душа ее способна любить. Он — ее половина. Их встреча была предопределена свыше, их судьбы переплелись воедино. Сможет ли Он, вопреки законам физики своего мира, быть вместе со своей любимой?-
Сэмпл: http://multi-up.com/820035-Тип релиза: BDRip 720p
Контейнер: MKV
Видео: 7941 Kbps, 1280*572, 23.976 fps, AVC
Аудио: Rus, 640 Kbps, 48.0 KHz, 16 bits, 6 ch, AC3 | Дубляж, Blu-ray
Релиз от:

MI

General
Unique ID                        : 234060515425053729470512851305719788375 (0xB0166A6131FD53A2AD9DF55E203DF357)
Complete name                    : D:\ноут\Upside.Down2012.720p.BluRay.Rus..mkv
Format                           : Matroska
File size                        : 6.59 GiB
Duration                         : 1h 47mn
Overall bit rate                 : 8 755 Kbps
Movie name                       : Upside Down (2012) - Release for HDCLUB
Encoded date                     : UTC 2012-10-01 08:56:14
Writing application              : mkvmerge v3.4.0 ('Rapunzel') built on May 15 2010 09:38:20
Writing library                  : libebml v0.8.0 + libmatroska v0.9.0
Video
ID                               : 1
Format                           : AVC
Format/Info                      : Advanced Video Codec
Format profile                   : High@L4.1
Format settings, CABAC           : Yes
Format settings, ReFrames        : 10 frames
Format settings, GOP             : N=1
Codec ID                         : V_MPEG4/ISO/AVC
Duration                         : 1h 47mn
Bit rate                         : 7 941 Kbps
Width                            : 1 280 pixels
Height                           : 572 pixels
Display aspect ratio             : 2.25:1
Frame rate                       : 23.976 fps
Color space                      : YUV
Chroma subsampling               : 4:2:0
Bit depth                        : 8 bits
Scan type                        : Progressive
Bits/(Pixel*Frame)               : 0.452
Stream size                      : 5.98 GiB (91%)
Title                            : Release for HDCLUB
Writing library                  : x264 core 128 r2216 198a7ea
Encoding settings                : cabac=1 / ref=10 / deblock=1:-3:-3 / analyse=0x3:0x113 / me=umh / subme=10 / psy=1 / psy_rd=1.00:0.00 / mixed_ref=1 / me_range=32 / chroma_me=1 / trellis=2 / 8x8dct=1 / cqm=0 / deadzone=21,11 / fast_pskip=0 / chroma_qp_offset=-2 / threads=18 / lookahead_threads=3 / sliced_threads=0 / nr=0 / decimate=0 / interlaced=0 / bluray_compat=0 / constrained_intra=0 / bframes=8 / b_pyramid=2 / b_adapt=2 / b_bias=0 / direct=3 / weightb=1 / open_gop=0 / weightp=2 / keyint=240 / keyint_min=22 / scenecut=40 / intra_refresh=0 / rc_lookahead=60 / rc=crf / mbtree=0 / crf=17.0 / qcomp=0.60 / qpmin=10 / qpmax=51 / qpstep=4 / vbv_maxrate=50000 / vbv_bufsize=62500 / crf_max=0.0 / nal_hrd=none / ip_ratio=1.40 / pb_ratio=1.30 / aq=1:0.80
Language                         : English
Matrix coefficients              : BT.709-5, BT.1361, IEC 61966-2-4 709, SMPTE RP177
Audio
ID                               : 2
Format                           : AC-3
Format/Info                      : Audio Coding 3
Mode extension                   : CM (complete main)
Codec ID                         : A_AC3
Duration                         : 1h 47mn
Bit rate mode                    : Constant
Bit rate                         : 640 Kbps
Channel(s)                       : 6 channels
Channel positions                : Front: L C R, Side: L R, LFE
Sampling rate                    : 48.0 KHz
Bit depth                        : 16 bits
Compression mode                 : Lossy
Stream size                      : 494 MiB (7%)
Title                            : AC3 5.1 @ 640 kbps - DUB, Blu-ray
Language                         : Russian
Menu
00:00:00.000                     : en:00:00:00.000
00:07:45.757                     : en:00:07:45.757
00:18:40.619                     : en:00:18:40.619
00:29:54.376                     : en:00:29:54.376
00:39:50.722                     : en:00:39:50.722
00:50:09.089                     : en:00:50:09.089
00:59:08.754                     : en:00:59:08.754
01:07:43.309                     : en:01:07:43.309
01:17:00.157                     : en:01:17:00.157
01:27:02.050                     : en:01:27:02.050
01:38:44.752                     : en:01:38:44.752

[Цитировать]



Показать сообщения:    

Текущее время: 08-Дек 21:17

Часовой пояс: UTC + 3


Вы не можете начинать темы
Вы не можете отвечать на сообщения
Вы не можете редактировать свои сообщения
Вы не можете удалять свои сообщения
Вы не можете голосовать в опросах
Вы не можете прикреплять файлы к сообщениям
Вы не можете скачивать файлы

!ВНИМАНИЕ!
Сайт не предоставляет электронные версии произведений, а занимается лишь коллекционированием и каталогизацией ссылок, присылаемых и публикуемых на форуме нашими читателями. Если вы являетесь правообладателем какого-либо представленного материала и не желаете, чтобы ссылка на него находилась в нашем каталоге, свяжитесь с нами, и мы незамедлительно удалим ее. Файлы для обмена на трекере предоставлены пользователями сайта, и администрация не несет ответственности за их содержание. Просьба не заливать файлы, защищенные авторскими правами, а также файлы нелегального содержания!